<?xml version="1.0" standalone="no"?>
<!DOCTYPE svg PUBLIC "-//W3C//DTD SVG 1.1//EN" "http://www.w3.org/Graphics/SVG/1.1/DTD/svg11.dtd" >
<svg xmlns="http://www.w3.org/2000/svg" xmlns:xlink="http://www.w3.org/1999/xlink" version="1.1">
<metadata>
Created by FontForge 20170812 at Fri Apr 29 12:09:01 2022
 By www-data
</metadata>
<defs>
<font id="SignatureInCardRegular" horiz-adv-x="0" >
  <font-face 
    font-family="Signature In Card"
    font-weight="400"
    font-stretch="normal"
    units-per-em="1000"
    panose-1="0 0 0 0 0 0 0 0 0 0"
    ascent="800"
    descent="-200"
    x-height="209.82"
    cap-height="694.532"
    bbox="-146.001 -441.561 947.54 772.989"
    underline-thickness="50"
    underline-position="-100"
    unicode-range="U+000A-20AC"
  />
<missing-glyph horiz-adv-x="527" 
d="M50 700h427v-700h-427v700zM78 680l185 -309l186 309h-371zM251 350l-180 300v-601zM264 329l-185 -308h370zM276 350l181 -303v605z" />
    <glyph glyph-name=".notdef" horiz-adv-x="527" 
d="M50 700h427v-700h-427v700zM78 680l185 -309l186 309h-371zM251 350l-180 300v-601zM264 329l-185 -308h370zM276 350l181 -303v605z" />
    <glyph glyph-name=".null" 
 />
    <glyph glyph-name=".null" 
 />
    <glyph glyph-name="LF" unicode="&#xa;" 
 />
    <glyph glyph-name="controlCR" unicode="&#xd;" 
 />
    <glyph glyph-name="space" unicode=" " horiz-adv-x="346" 
 />
    <glyph glyph-name="exclam" unicode="!" horiz-adv-x="96" 
d="M75.1973 29.7305c0.911133 -17.2734 -25.7754 -17.1143 -26.7793 0c-10.1885 173.539 -18.8066 347.18 -27.3994 520.805c-0.751953 15.2061 22.6162 15.0244 23.5469 0c10.752 -173.564 21.4756 -347.151 30.6318 -520.805zM84.4258 -59.9268
c2.57715 -15.8145 -21.7148 -22.4209 -24.0947 -6.6416c-2.94727 19.501 -6.65918 40.7734 -3.3584 60.3955c1.80957 10.7715 19.1572 10.3154 21.3105 -0.000976562c3.66406 -17.542 3.25 -36.001 6.14258 -53.7529z" />
    <glyph glyph-name="quotedbl" unicode="&#x22;" horiz-adv-x="110" 
d="M26.6387 449.001c2.94727 15.6582 26.7676 8.98047 23.8555 -6.57617c-5.78223 -30.9062 -8.92383 -61.959 -9.65039 -93.3877c-0.369141 -15.9873 -25.2256 -15.9902 -24.8398 0c0.8125 33.6016 4.41895 66.9355 10.6348 99.9639zM73.3906 442.598
c3.16016 13.5938 23.9971 7.80566 20.8809 -5.75391c-6.82715 -29.7119 -10.4014 -59.6592 -10.0029 -90.1582c0.1875 -14.4414 -22.6807 -14.4092 -22.4004 0.000976562c0.624023 32.3779 4.18262 64.3516 11.5225 95.9111z" />
    <glyph glyph-name="quotedbl" unicode="&#x201d;" horiz-adv-x="110" 
d="M26.6387 449.001c2.94727 15.6582 26.7676 8.98047 23.8555 -6.57617c-5.78223 -30.9062 -8.92383 -61.959 -9.65039 -93.3877c-0.369141 -15.9873 -25.2256 -15.9902 -24.8398 0c0.8125 33.6016 4.41895 66.9355 10.6348 99.9639zM73.3906 442.598
c3.16016 13.5938 23.9971 7.80566 20.8809 -5.75391c-6.82715 -29.7119 -10.4014 -59.6592 -10.0029 -90.1582c0.1875 -14.4414 -22.6807 -14.4092 -22.4004 0.000976562c0.624023 32.3779 4.18262 64.3516 11.5225 95.9111z" />
    <glyph glyph-name="quotedbl" unicode="&#x201c;" horiz-adv-x="110" 
d="M26.6387 449.001c2.94727 15.6582 26.7676 8.98047 23.8555 -6.57617c-5.78223 -30.9062 -8.92383 -61.959 -9.65039 -93.3877c-0.369141 -15.9873 -25.2256 -15.9902 -24.8398 0c0.8125 33.6016 4.41895 66.9355 10.6348 99.9639zM73.3906 442.598
c3.16016 13.5938 23.9971 7.80566 20.8809 -5.75391c-6.82715 -29.7119 -10.4014 -59.6592 -10.0029 -90.1582c0.1875 -14.4414 -22.6807 -14.4092 -22.4004 0.000976562c0.624023 32.3779 4.18262 64.3516 11.5225 95.9111z" />
    <glyph glyph-name="numbersign" unicode="#" horiz-adv-x="593" 
d="M513.236 300.321c15.9131 -0.287109 30.0342 -9.42773 29.7031 -26.542c-0.328125 -16.8281 -26.5508 -16.8154 -26.1338 0c0.0703125 2.87695 -46.0166 -4.12891 -81.5107 -10.1211c-6.40039 -26.7969 -12.4854 -53.6699 -18.293 -80.6094
c16.0537 2.9375 22.6514 -21.5879 6.33984 -25.5762c-4.15723 -1.0127 -8.2959 -2.08008 -12.4404 -3.12793c-24.1846 -116.502 -42.9971 -234.122 -56.8457 -351.898c-2.13184 -18.125 -30.7949 -18.3066 -28.6729 0c13.4541 116.113 32.9424 230.945 57.7031 344.611
c-30.9668 -8.45898 -61.583 -17.9629 -91.8359 -28.7217c-25.1592 -107.346 -45.1094 -215.95 -60.1406 -325.418c-2.16602 -15.7764 -29.7715 -11.8926 -27.7676 3.75977c13.3525 104.262 32.3789 207.746 56.5439 310.029h-0.00292969
c-54.2656 -21.1543 -105.518 -47.5586 -156.989 -74.6006c-12.5107 -6.57227 -22.9346 11.3105 -11.0547 18.915c54.3955 34.8184 114.048 63.7969 175.695 87.1084c7.20605 29.1543 14.8301 58.2061 22.8613 87.1465
c-2.16602 -0.751953 -4.33594 -1.49121 -6.49902 -2.25293c-67.1875 -23.6836 -131.062 -53.6689 -193.878 -86.751c-0.875977 -1.07715 -2.07715 -2.03906 -3.66016 -2.81348c-6.56641 -3.20801 -13.1357 -6.41602 -19.6953 -9.63672
c-12.7695 -6.2666 -23.5566 11.6641 -11.2305 19.2119c75.8115 46.4219 158.925 82.7129 243.128 111.198c23.9932 83.4326 51.2832 165.915 81.7275 247.165c5.4834 14.6328 29.0908 8.31836 23.6172 -6.50879c-28.0586 -76.0156 -52.9473 -153.006 -74.9678 -230.761
c28.7842 8.97168 57.9355 16.8213 87.4492 22.9609c20.3447 78.8857 43.1211 157.224 68.2383 235.017c4.25977 13.1924 25.0703 7.53711 20.833 -5.74512c-23.6016 -73.957 -44.6416 -148.842 -63.3105 -224.373c0.97168 0.166016 1.93652 0.360352 2.9082 0.522461
c22.0908 3.67969 45.7393 8.20996 68.1807 7.81152zM389.593 176.46c6.25098 27.6182 12.7861 55.1689 19.6514 82.6445c-6.7832 -1.2334 -11.6768 -2.17969 -13.4639 -2.60645c-25.2256 -6.01172 -50.1807 -13.1416 -74.8877 -21.043
c-7.82129 -28.6152 -15.248 -57.3359 -22.292 -86.1523c30.1162 10.3672 60.5605 19.4219 90.9922 27.1572z" />
    <glyph glyph-name="dollar" unicode="$" horiz-adv-x="367" 
d="M316.672 357.594c5.00781 -17.9688 -22.6289 -25.4678 -27.8379 -7.6709c-10.4307 35.6436 -49.9863 34.0312 -79.2168 22.7822c-12.6992 -81.1797 -23.5664 -162.483 -32.2832 -244.029c0.547852 -0.853516 1.09863 -1.71387 1.64355 -2.56445
c17.5762 -27.4053 36.3477 -54.0166 54.708 -80.8994c9.71973 -14.2314 19.4053 -28.501 28.5166 -43.1309c6.85938 -11.0195 13.9512 -23.002 13.8555 -36.4111c-0.216797 -30.9346 -35.1309 -37.8037 -59.7041 -35.1406
c-18.7109 2.02637 -37.3926 8.17871 -54.6221 16.6025c-2.94727 -46.0361 -5.14258 -92.1807 -6.44922 -138.456c-0.519531 -18.4492 -29.2783 -18.4463 -28.6729 0c1.69141 51.4492 4.24023 103 7.62988 154.561c-40.2988 27.873 -70.0771 69.1494 -83.7061 116.336
c-4.29492 14.8652 18.6914 21.0908 23.0879 6.36523c10.873 -36.4248 33.1777 -69.0869 62.6699 -92.7773c3.07715 42.4648 6.76367 84.9229 11.1279 127.317c-28.0166 42.4365 -56.0654 91.248 -53.0869 140.903c3.18555 53.1025 37.498 101.181 82.5303 127.961
c2.87988 1.71387 5.83594 3.34863 8.84668 4.91309c6.71582 37.5107 13.9922 74.8936 21.9922 112.069c3.29395 15.3115 25.917 8.64648 23.2314 -6.40723c-5.59082 -31.3428 -10.9209 -62.6982 -16.0156 -94.0664c16.0381 4.37109 32.7861 5.55273 49.1074 1.49414
c25.1523 -6.25391 45.6572 -24.6719 52.6475 -49.751zM223.447 9.32812c-16.6436 24.7549 -33.9609 49.042 -50.7568 73.6914c-3.47266 -35.9561 -6.51562 -71.9629 -9.07422 -108.037c10.9912 -5.95801 22.6201 -10.791 34.7617 -14.2705
c10.8799 -3.11621 50.5791 -12.3076 49.5469 8.0791c-0.636719 12.5938 -17.6816 30.4287 -24.4775 40.5371zM152.696 168.662c7.2002 62.4658 15.9219 124.738 26.2764 186.656c-19.1025 -14.2793 -34.9648 -33.0859 -44.9844 -54.709
c-21.1318 -45.6064 -4.60645 -90.8047 18.708 -131.947z" />
    <glyph glyph-name="percent" unicode="%" horiz-adv-x="475" 
d="M400.107 426.853c13.0527 13.6162 33.5635 -7.00293 20.6641 -20.6641c-153.688 -162.72 -287.68 -339.858 -405.214 -530.222c-8.86035 -14.3496 -31.1748 -1.39941 -22.6523 13.2402c112.991 194.088 251.861 375.595 407.202 537.646zM16.5322 284.612
c-22.8555 11.7588 1.66016 38.4385 12.2246 49.124c17.041 17.2295 37.7529 30.5498 60.2617 39.4131c32.9131 12.9639 91.0234 22.8652 97.9971 -25.6914c6.19629 -43.1367 -29.4092 -88.8574 -54.0264 -120.659c-14.0527 -18.1562 -29.9248 -41.1484 -51.8662 -50.3652
c-18.873 -7.92285 -35.0225 4.41895 -36.6221 23.6934c-1.78418 21.502 5.88086 46.4189 12.4883 66.6084c7.83105 23.9258 18.7939 46.6924 32.334 67.8945c9.56738 14.9834 33.5127 1.08984 23.8975 -13.9697c-11.2783 -17.6631 -20.9512 -36.2148 -27.9473 -56.002
c-3.37988 -9.55469 -6.2373 -19.2842 -8.55957 -29.1475c-1.87012 -7.94238 -7.05664 -21.8428 -5.1582 -29.8652c1.1377 -4.80078 0.547852 -3.86719 5.64258 -0.604492c4.15137 2.65723 7.74805 6.1748 11.2402 9.62793c7.20605 7.12695 13.5908 15.0469 19.8828 22.9795
c12.2471 15.4424 23.9551 31.4355 33.7998 48.541c9.02246 15.6748 19.9375 34.7969 19.4727 53.5078c-0.583008 23.5439 -26.0674 19.335 -42.4043 15.6357c-17.2295 -3.89941 -33.5186 -10.7812 -48.3613 -20.3545c-7.9873 -5.15137 -15.375 -11.0547 -22.1992 -17.6689
c-1.99707 -1.9375 -11.7969 -11.1289 -15.002 -15.3633c5.82715 -9.31836 -4.94727 -23.585 -17.0947 -17.334zM351.128 137.661c51.3252 -0.181641 45.8047 -55.6816 32.9844 -89.6621c-17.1914 -45.5586 -46.4033 -85.5801 -79.1035 -121.274
c-12.9951 -14.1865 -31.668 -33.1777 -52.3379 -34.0732c-19.9404 -0.863281 -29.6768 17.8096 -31.1104 35.1758c-3.4375 41.624 8.16895 84.3467 21.7568 124.55c-10.2773 -5.7666 -25.5029 4.9541 -17.1689 16c28.5518 37.8359 75.8525 69.459 124.979 69.2842z
M329.78 -1.14746c11.5166 16.917 65.1426 102.44 27.2363 113.53c-17.793 5.20215 -46.2715 -7.50684 -61.4619 -15.5898c-4.87109 -2.59375 -9.57617 -5.45117 -14.1133 -8.54492c1.625 -2.79395 2.11523 -6.35254 0.704102 -10.4941
c-15.6494 -46.001 -35.6826 -96.4785 -32.7959 -145.994c0.108398 -1.83203 0.222656 -11.1025 2.58691 -12.0459c2.13477 -0.850586 8.60254 3.75293 10.9375 5.13281c8.97461 5.30176 16.4043 12.9922 23.5088 20.5078c15.7666 16.6816 30.4756 34.5195 43.3975 53.498z
" />
    <glyph glyph-name="ampersand" unicode="&#x26;" horiz-adv-x="438" 
d="M405.625 156.262c2.82617 13.9824 22.9365 7.70312 20.9834 -5.78613c-4.3457 -29.9023 -26.0508 -55.0928 -46.6826 -75.8584c-21.4473 -21.584 -45.5195 -40.7568 -69.9932 -58.7764c-16.1748 -11.9121 -32.917 -23.3242 -50.127 -34.042
c0.949219 -23.3242 2.03516 -46.6416 3.30957 -69.9492c0.949219 -17.3408 -26.0254 -17.248 -26.9297 0c-0.952148 18.1504 -1.76758 36.3008 -2.52246 54.457c-22.7568 -12.8164 -46.2373 -24.2852 -70.3037 -33.9004
c-21.5371 -8.60156 -51.1113 -19.4404 -74.502 -12.3008c-23.6709 7.22266 -24.0059 31.751 -16.7959 51.2744c9.30957 25.21 26.3027 46.2334 43.7744 66.2627c12.3516 14.1611 25.248 27.8574 38.584 41.1045c-11.46 -1.88965 -23.0537 -2.32324 -34.6348 -0.625
c-30.7754 4.50781 -54.9023 24.2285 -64.8516 53.8418c-10.9053 32.4678 -2.04492 67.9619 10.2969 98.6416c24.1494 60.0254 66.9902 110.296 115.798 151.951c17.2705 14.7412 35.3691 28.9375 54.6689 41.1016c1.78125 35.2139 3.91309 70.4121 6.45215 105.588
c1.16309 16.1211 26.3477 16.2266 25.2393 0.000976562c-2.06445 -30.2695 -3.82324 -60.5547 -5.3457 -90.8525c1.80957 0.888672 3.59375 1.82812 5.42871 2.67285c25.7959 11.8574 59.1807 24.7383 87.3252 13.46c27.5391 -11.0293 33.0283 -40.6357 33.0889 -67.1484
c0.0957031 -41.5254 -4.66699 -83.1016 -9.41699 -124.295c-2.03906 -17.6719 -29.8906 -17.9941 -28.0273 0c3.74316 36.1699 7.82129 72.3398 8.9209 108.717c0.414062 13.6895 2.04199 29.5898 -2.80371 42.7217c-6.21289 16.834 -23.2578 17.5576 -38.6484 14.4258
c-20.0938 -4.09082 -39.2471 -12.167 -57.3877 -22.5439c-3.54297 -80.7559 -5.13281 -161.582 -4.78906 -242.405c16.4932 11.7373 33.4043 22.9004 50.7002 33.4297c13.6074 8.2832 28.1826 -10.9277 16.8818 -21.8779
c-20.5459 -19.9053 -43.0547 -37.7656 -67.2354 -53.0166c0.461914 -37.0645 1.33496 -74.126 2.62207 -111.175c8.40137 5.27246 16.7354 10.6533 24.917 16.2666c25.0254 17.1719 49.2891 35.8027 71.5518 56.4629c21.0361 19.5234 44.5732 43.0859 50.4541 72.1729z
M206.66 -18.4971c8.72266 4.52441 17.3145 9.28516 25.8467 14.1592c-1.3252 37.2236 -2.24902 74.457 -2.73926 111.693c-0.707031 -0.369141 -1.39844 -0.773438 -2.1084 -1.13965c-1.32812 -0.68457 -2.67871 -1.36914 -4.02637 -2.05371
c-14.7764 -12.3135 -29.1572 -25.1172 -43.0195 -38.5303c-20.8418 -20.167 -41.2061 -41.3535 -59.2227 -64.1104c-9.55176 -12.0615 -18.6123 -25.3467 -23.748 -39.96c-2.45312 -6.99316 -5.49902 -13.3008 2.68848 -16.1201
c5.8584 -2.01953 15.3877 0.895508 21.1064 2.01074c30.0176 5.8457 58.2793 20.0771 85.2227 34.0508zM229.413 144.425c-0.47168 81.6416 1.10156 163.283 4.66016 244.858c-18.7168 -13.4736 -36.1562 -28.7373 -52.1592 -43.6885
c-38.8457 -36.2969 -73.502 -79.2969 -92.3398 -129.542c-9.6377 -25.71 -17.7646 -56.4766 -5.15527 -82.6426c13.7695 -28.5771 46.6348 -32.1484 74.3203 -25.127c16.124 4.08789 31.9297 10.0547 47.2412 17.3887c7.6875 6.40723 15.5156 12.6357 23.4326 18.7529z" />
    <glyph glyph-name="quotesingle" unicode="'" horiz-adv-x="68" 
d="M30.0088 465.141c2.47266 13.7344 23.2695 7.85254 20.8799 -5.75781c-7.3623 -41.958 -10.9717 -84.2822 -12.2363 -126.843c-0.429688 -14.5596 -22.9639 -14.5947 -22.6484 0c0.964844 44.5488 6.11328 88.7656 14.0049 132.601z" />
    <glyph glyph-name="quotesingle" unicode="&#x2019;" horiz-adv-x="68" 
d="M30.0088 465.141c2.47266 13.7344 23.2695 7.85254 20.8799 -5.75781c-7.3623 -41.958 -10.9717 -84.2822 -12.2363 -126.843c-0.429688 -14.5596 -22.9639 -14.5947 -22.6484 0c0.964844 44.5488 6.11328 88.7656 14.0049 132.601z" />
    <glyph glyph-name="quotesingle" unicode="&#x2018;" horiz-adv-x="68" 
d="M30.0088 465.141c2.47266 13.7344 23.2695 7.85254 20.8799 -5.75781c-7.3623 -41.958 -10.9717 -84.2822 -12.2363 -126.843c-0.429688 -14.5596 -22.9639 -14.5947 -22.6484 0c0.964844 44.5488 6.11328 88.7656 14.0049 132.601z" />
    <glyph glyph-name="parenleft" unicode="(" horiz-adv-x="336" 
d="M277.605 563.693c13.5146 -3.25 7.75195 -23.9238 -5.73438 -20.7822c-34.0635 7.93262 -65.2822 -24.8115 -86.1689 -47.54c-20.4912 -22.3018 -37.6309 -47.3145 -52.7539 -73.5029c-57.9287 -100.312 -92.0879 -218.524 -90.3135 -334.727
c1.46582 -95.9912 39.209 -263.99 164.733 -259.288c18.3535 0.68457 18.2676 -27.791 0 -28.4756c-71.3477 -2.67285 -126.101 50.8213 -154.271 111.806c-55.7178 120.624 -42.3369 265.395 -1.54492 388.398c20.1475 60.752 47.9385 120.596 85.3379 172.724
c30.0752 41.9229 81.8877 105.526 140.715 91.3877z" />
    <glyph glyph-name="parenright" unicode=")" horiz-adv-x="259" 
d="M191.026 455.299c59.2451 -105.832 52.5215 -236.615 34.1963 -352.483c-18.4492 -116.658 -59.3145 -230.777 -134.485 -323.137c-11.7432 -14.4287 -31.8779 6.08496 -20.3799 20.3799c38.999 48.4834 69.0518 103.938 90.4893 162.265
c38.0654 103.573 56.8203 220.696 49.2695 330.947c-7.22266 105.481 -53.5898 211.412 -154.472 257.012c-11.8672 5.3623 -3.14453 25.7939 8.86035 21.0186c54.8486 -21.8174 97.9375 -64.9385 126.521 -116.002z" />
    <glyph glyph-name="asterisk" unicode="*" horiz-adv-x="221" 
d="M190.653 356.632c16.4648 2.37305 23.3926 -22.8623 6.91797 -25.1055c-21.792 -2.96289 -43.6406 -6.23145 -65.5186 -9.38184c16.1494 -19.4561 31.3398 -39.7568 46.001 -60.29c8.93359 -12.5146 -11.2842 -23.5156 -20.2871 -11.8613
c-12.2178 15.8213 -24.2607 31.7988 -36.6279 47.4736c-0.1875 -21.9863 -0.477539 -43.9658 -0.754883 -65.9258c-0.201172 -16.1299 -25.0127 -16.1201 -25.0381 0.000976562c-0.0322266 21.1387 -0.0771484 42.293 -0.0292969 63.4541
c-16.1338 -18.5322 -31.6494 -37.6064 -46.4736 -57.2129c-8.08887 -10.7012 -26.2607 -0.916992 -18.4805 10.8037c15.2861 23.0312 31.7031 45.1729 49.124 66.4707c-17.9307 -2.20117 -35.874 -4.13477 -53.8174 -5.49219
c-12.3389 -0.933594 -14.8428 19.0068 -2.90527 21.4629c20.1797 4.15137 40.5537 7.59863 61.0068 10.7109c-14.251 15.4609 -29.4062 30.0908 -46.1162 43.2959c-10.998 8.69141 4.47949 23.7764 15.3467 15.3467c15.1963 -11.7881 29.4248 -24.6182 42.9072 -38.1992
c0.261719 15.2129 0.625 30.416 1.1377 45.6123c0.512695 15.1807 23.25 15.2002 23.5938 0c0.34375 -15.1523 0.538086 -30.3174 0.630859 -45.4854c12.6826 13.25 25.7861 26.127 39.4062 38.5293c12.7373 11.5996 31.6836 -7.19727 18.9717 -18.9727
c-10.998 -10.1816 -21.7725 -20.6055 -32.3652 -31.2109c14.4893 1.94629 28.96 3.90234 43.3701 5.97656z" />
    <glyph glyph-name="plus" unicode="+" horiz-adv-x="293" 
d="M230.677 226.026c16.6338 0.917969 16.3008 -24.4033 -0.0078125 -25.6875c-24.3623 -1.91504 -48.5176 -4.62012 -72.6221 -7.63672c-0.197266 -43.4014 0.949219 -86.8311 3.96973 -130.427c1.18848 -17.1914 -25.5732 -17.0771 -26.7334 -0.000976562
c-2.85742 42.1045 -4.38965 84.5186 -4.24316 126.942c-23.1934 -3.08691 -46.3867 -6.31738 -69.7012 -9.32129c-13.3584 -1.7207 -15.5693 19.9082 -3.11523 23.0273c23.8213 5.9707 48.3721 10.4785 73.1484 13.9355c1.07031 49.9512 4.60938 99.8262 11.3125 149.131
c1.70117 12.5273 22.709 9.38281 21.9033 -2.96289c-3.11621 -47.7188 -5.40332 -95.2646 -6.22168 -142.811c24.2188 2.67285 48.4766 4.49512 72.3105 5.81055z" />
    <glyph glyph-name="comma" unicode="," horiz-adv-x="105" 
d="M66.4756 106.186c7.78613 15.793 31.3486 1.92773 23.5977 -13.7949c-26.0254 -52.7842 -53.6182 -104.718 -82.5938 -155.94c-8.03809 -14.209 -29.5488 -1.54785 -21.8359 12.7627c27.918 51.8125 54.8066 104.188 80.832 156.973z" />
    <glyph glyph-name="hyphen" unicode="-" horiz-adv-x="185" 
d="M156.271 181.076c16.0312 3.08984 22.874 -21.3643 6.77539 -24.5791c-45.2969 -9.03516 -94.8945 -18.2549 -141.221 -15.2949c-11.6348 0.745117 -15.7637 19.5449 -2.91797 21.5615c45.7051 7.1748 91.7539 9.52246 137.363 18.3125z" />
    <glyph glyph-name="period" unicode="." horiz-adv-x="50" 
d="M12.5273 20.415c1.06445 16.5312 26.876 16.6113 25.8369 0c-1.13379 -18.0674 -2.26465 -36.1348 -3.39551 -54.1992c-1.04199 -16.6113 -27.0098 -16.6592 -25.9365 0c1.16602 18.0674 2.3291 36.1348 3.49512 54.1992z" />
    <glyph glyph-name="slash" unicode="/" horiz-adv-x="455" 
d="M377.799 499.644c10.042 15.0625 34.2256 1.25195 24.458 -14.2988c-129.969 -206.901 -240.857 -422.727 -326.819 -651.681c-5.70898 -15.21 -30.1797 -8.79004 -24.623 6.78906c82.2471 230.62 191.049 455.271 326.984 659.19z" />
    <glyph glyph-name="zero" unicode="0" horiz-adv-x="322" 
d="M64.1953 114.754c-22.9287 7.5127 -33.5107 28.5215 -38.9463 50.708c-6.71289 27.3955 -9.20117 56.2529 -7.92676 84.3975c2.46582 54.5967 18.335 113.976 52.4434 157.626c28.9756 37.0742 73.502 53.166 117.196 30.7568
c44.0547 -22.5947 69.3887 -73.8975 85.6846 -118.277c38.8262 -105.728 35.3691 -229.066 14.7148 -338.206c-9.02246 -47.6768 -23.1455 -102.104 -58.0723 -137.984c-15.168 -15.582 -36.4307 -23.54 -57.1807 -14.1797
c-20.8936 9.42676 -34.2646 31.0811 -43.7461 50.9863c-23.1104 48.5176 -29.9023 105.188 -30.4023 158.418c-0.522461 55.5107 7.94238 111.344 25.1875 164.111c5.72852 17.5254 33.2803 10.1025 27.7461 -7.64941
c-15.8564 -50.8691 -24.4453 -103.108 -23.9326 -156.463c0.46875 -48.5908 5.88184 -102.047 27.5557 -146.268c7.14258 -14.5752 23.0879 -46.3828 44.0381 -36.7324c16.8535 7.76367 27.6797 30.8457 35.3223 46.5557c19.0195 39.0908 26.9492 83.8975 32.8301 126.637
c12.54 91.1201 12.333 190.667 -17.6367 278.54c-13.0146 38.1543 -33.9082 84.7637 -70.3994 105.938c-40.9805 23.7734 -78.0391 -1.3252 -99.6709 -37.4404c-21.6416 -36.1348 -33.5381 -79.0615 -36.2812 -120.931
c-1.46875 -22.4062 -0.550781 -45.0674 3.28809 -67.2061c2.83887 -16.3887 6.25781 -43.3154 24.7803 -49.4326c15.0977 -4.98633 8.6084 -28.8867 -6.5918 -23.9043z" />
    <glyph glyph-name="one" unicode="1" horiz-adv-x="100" 
d="M85.9199 -59.6777c1.6377 -18.0352 -26.5508 -17.9014 -28.125 0c-15.0156 170.672 -27.1982 341.614 -37.7656 512.614c-1.00391 16.2285 24.1299 16.082 25.1875 0c11.2363 -171.061 25.21 -341.889 40.7031 -512.614z" />
    <glyph glyph-name="two" unicode="2" horiz-adv-x="357" 
d="M61.417 291.386c-33.4424 11.4688 16.2197 50.0352 26.4912 58.7705c26.6055 22.6133 56.002 42.1016 87.1152 57.9258c27.5488 14.0117 60.2871 30.2822 92.0986 26.7012c27.29 -3.07422 37.3643 -25.4707 33.3311 -50.6299
c-5.2666 -32.8789 -22.1455 -64.4102 -36.4629 -94.0996c-14.7217 -30.5303 -30.2979 -60.6338 -45.2871 -91.0303c-30.3486 -61.542 -58.8818 -125.065 -70.5771 -193.157c-5.2793 -30.7402 -1.63477 -63.5391 36.6279 -64.125
c35.3096 -0.541992 69.1279 18.1396 99.6934 33.6963c16.7861 8.54492 31.6006 -16.6904 14.7979 -25.3174c-44.749 -22.9766 -135.965 -69.3154 -172.405 -8.53125c-13.4697 22.4697 -10.373 50.1006 -5.76953 74.6348c5.83301 31.0879 15.1357 61.4365 26.4043 90.9639
c22.1992 58.1582 51.7002 113.045 79.8857 168.426c14.8721 29.2246 30.8047 58.7197 41.5664 89.7598c3.40527 9.81934 14.2344 34.7393 2.45898 42.749c-11.415 7.76367 -35.1279 -1.01074 -46.6133 -5.02832c-29.4668 -10.3096 -57.7227 -25.8379 -83.7549 -42.9434
c-14.0781 -9.24902 -27.6113 -19.3164 -40.5684 -30.082c-5.49902 -4.56836 -10.8701 -9.28711 -16.1523 -14.1045c-2.34473 -2.13477 -5.2793 -5.76953 -7.85352 -7.2959c-0.707031 -0.694336 -1.41699 -1.3916 -2.12402 -2.08887
c3.10352 -7.17773 -3.87695 -18.29 -12.9023 -15.1934z" />
    <glyph glyph-name="three" unicode="3" horiz-adv-x="408" 
d="M73.04 296.965c-9.17188 -12.0938 -29.9092 -0.536133 -20.7656 12.1279c31.4834 43.6533 80.4248 72.5498 127.697 96.374c24.9551 12.5752 50.958 24.2168 77.5605 32.8701c18.959 6.16797 47.8584 12.04 61.2715 -7.4707
c14.0342 -20.4053 -4.75586 -45.6602 -16.126 -62.3477c-14.9609 -21.957 -31.7344 -42.6689 -49.1484 -62.7109c-17.9746 -20.6826 -36.7363 -40.665 -55.1416 -60.9619c-8.58887 -9.47168 -17.1172 -19.001 -25.4512 -28.7021
c-3.40527 -3.9668 -7.05957 -7.95215 -10.5576 -12.0811c9.41406 4.42871 18.5039 9.86426 27.6729 14.251c15.7285 7.52832 31.9102 14.2158 48.3906 19.9121c32.6846 11.2939 72.9922 24.6299 107.728 16.085c27.2393 -6.7002 47.1641 -28.0996 48.7539 -56.4697
c1.66895 -29.7881 -13.8623 -60.252 -28.5713 -85.1338c-32.5312 -55.0234 -75.6016 -104.577 -124.941 -145.131c-23.0215 -18.9209 -50.4844 -41.7959 -80.3906 -48.2314c-27.6406 -5.94531 -35.9082 21.3096 -26.5352 42.2598
c25.6055 57.2314 76.373 102.679 121.546 144.347c13.5879 12.5332 33.8916 -7.63379 20.3447 -20.3457c-41.0664 -38.5361 -83.5088 -77.5859 -111.054 -127.42c-1.23633 -2.2334 -2.34473 -4.90918 -3.5459 -7.42578c4.8457 2.21094 10.1279 3.93164 14.7568 6.43848
c10.5234 5.69629 20.4639 12.4092 30.0342 19.5771c20.1377 15.085 38.9951 32.0908 56.6611 49.9893c35.2393 35.7041 68.2578 77.0859 89.9346 122.587c9.88574 20.7461 23.6201 55.5078 -1.00098 71.3477c-21.9863 14.1484 -52.791 4.90625 -75.9434 -1.19434
c-25.5322 -6.72852 -50.4521 -15.7637 -74.2129 -27.2871c-22.4541 -10.8896 -43.127 -24.0947 -68.7959 -24.834c-9.29004 -0.267578 -16.1748 9.32812 -13.75 18.0508c6.00586 21.6104 22.792 38.1992 37.3164 54.5967c14.5342 16.4102 29.5684 32.3711 44.5195 48.3994
c31.4385 33.7031 63.1797 67.8086 88.001 106.839c4.69629 7.38477 14.248 19.3926 2.91602 23.3076c-10.5195 3.63477 -29.0518 -4.92871 -38.9248 -8.54492c-23.4102 -8.57617 -46.2344 -18.6982 -68.373 -30.167c-40.7217 -21.0938 -83.7119 -45.7559 -111.875 -82.9004z
" />
    <glyph glyph-name="four" unicode="4" horiz-adv-x="264" 
d="M36.6533 141.515c-13.4219 42.9648 -13.9004 92.5615 -15.5566 137.177c-1.86328 50.2002 -1.12402 100.499 0.478516 150.692c0.449219 14.1426 21.8936 14.1904 22.002 0c0.643555 -83.2822 -0.964844 -167.154 12.0273 -249.704
c5.94531 -37.7715 20.7119 -76.7188 66.541 -68.875c26.6309 4.55859 52.3311 14.7979 76.0312 28.1338c-5.90332 101.92 -8.20703 204.127 -10.3828 306.155c-0.34082 15.9326 24.2451 15.8496 24.6914 0c2.72363 -96.6318 5.54297 -193.448 11.415 -290.013
c0.277344 0.194336 0.564453 0.381836 0.841797 0.576172c14.9033 10.4111 29.0107 -14.0439 14.2217 -24.3311c-4.22461 -2.9375 -8.55469 -5.80176 -12.9736 -8.58984c6.7002 -97.9189 16.8887 -195.528 33.8311 -292.367
c3.16016 -18.0645 -24.5098 -25.707 -27.5996 -7.6084c-16.1523 94.5479 -25.8594 189.774 -32.1162 285.291c-25.207 -12.7881 -52.4209 -22.1924 -79.918 -25.3779c-41.4326 -4.80078 -71.5234 20.3936 -83.5342 58.8408z" />
    <glyph glyph-name="five" unicode="5" horiz-adv-x="378" 
d="M66.4307 288.764c-12.4189 -6.64941 -23.3271 11.9199 -11.0488 18.9189c31.9102 18.1982 64.6289 34.8857 98.0107 50.0947c5.05566 11.7236 10.249 23.4062 15.8789 34.8369c4.92188 9.99414 10.3828 18.9971 22.75 18.5957
c14.5273 -0.474609 14.3682 -21.6416 0 -22.4512c3.29102 0.18457 -1.90527 -7.29883 -3.43164 -10.877c-0.81543 -1.91504 -1.63086 -3.83301 -2.44629 -5.74805c44.415 18.7207 89.9131 34.8887 136.194 48.5371c15.7861 4.6582 22.5146 -20.0488 6.77637 -24.5762
c-53.3672 -15.3525 -105.504 -34.1426 -156.348 -56.0459c-0.828125 -2.01953 -1.68164 -4.0332 -2.50684 -6.05664c-8.24512 -20.2656 -16.2129 -40.6367 -23.7637 -61.1699c-7.55078 -20.5361 -14.7314 -41.209 -21.5332 -62.0029
c-3.11621 -9.51953 -6.87598 -19.1445 -8.94336 -28.9473c-3.38672 -16.0693 8.17773 -13.4248 19.6211 -11.6279c64.1924 10.0869 148.115 31.0596 202.106 -18.5449c50.6523 -46.54 14.8525 -124.964 -13.5176 -173.402
c-16.8252 -28.7207 -38.0908 -55.3672 -64.9258 -75.3271c-21.8428 -16.2451 -56.4668 -25.1182 -70.2012 5.88672c-12.1416 27.4111 -2.09375 67.5117 5.89355 94.8438c10.4658 35.8125 27.3604 69.6787 45.6885 102.038c8.91113 15.7324 32.8535 1.67578 24.2002 -14.1455
c-18.5576 -33.9297 -36.3701 -68.4873 -45.749 -106.25c-4.41895 -17.79 -8.35059 -37.9883 -6.28613 -56.4121c3.01367 -26.8887 30.6064 -3.76855 41.3975 5.87207c23.0273 20.5781 40.4736 46.3008 54.6416 73.5654c13.7119 26.3828 28.8926 57.8438 26.1367 88.4375
c-3.22461 35.7676 -36.2686 51.3271 -67.9648 56.5078c-36.2334 5.91895 -73.4736 -0.908203 -109.185 -7.04395c-22.7412 -3.90918 -59.1719 -13.4316 -68.3281 16.9268c-3.78516 12.5586 0.401367 25.7129 4.28516 37.6475
c5.23145 16.0859 10.7588 32.082 16.4707 48.0049c9.2168 25.6914 19.0195 51.1816 29.3994 76.4326c-24.748 -11.4473 -49.1807 -23.6143 -73.2725 -36.5176z" />
    <glyph glyph-name="six" unicode="6" horiz-adv-x="281" 
d="M57.4746 -70.1143c-24.1709 20.8486 -33.1426 52.5693 -37.2461 83.0771c-10.2109 75.9736 5.39355 152.139 24.499 225.459c18.7363 71.8965 40.0273 143.525 74.4893 209.665c7.45215 14.2979 28.8994 1.65625 21.5781 -12.6133
c-30.7373 -59.9111 -49.9551 -124.477 -66.8623 -189.415c-15.2354 -58.5088 -29.2402 -118.085 -29.6191 -178.869c-0.0322266 -4.91309 -0.00390625 -9.88672 0.104492 -14.8857c26.6055 16.4873 56.4316 27.6543 87.4082 32.5801
c30.5527 4.8584 71.8994 7.58203 91.1777 -22.3652c17.2871 -26.8574 1.12207 -60.7168 -15.8271 -83.4326c-17.9688 -24.085 -43.2422 -48.0146 -70.9307 -60.3633c-27.0518 -12.0654 -56.2471 -8.26465 -78.7715 11.1631zM113.368 51.5508
c-24.0156 -6.73145 -46.1504 -17.7178 -66.6836 -31.6309c1.64746 -12.8301 4.33984 -25.4648 8.67578 -37.4375c8.39453 -23.1904 28.4941 -46.8779 55.8291 -42.3193c25.0029 4.16992 47.4414 26.4932 63.8174 44.4805c13.2217 14.5244 41.5186 51.6016 17.9395 68.1875
c-20.5654 14.4609 -57.3945 4.93848 -79.5781 -1.28027z" />
    <glyph glyph-name="seven" unicode="7" horiz-adv-x="300" 
d="M69.1211 352.931c-14.0303 -9.39551 -27.0859 13.2471 -13.1953 22.5654c47.2656 31.7129 96.7617 64.665 153.448 76.2549c19.2715 3.94141 39.9961 4.36523 53.3262 -12.4854c13.7188 -17.3438 12.8965 -44.1113 10.6504 -64.7715
c-6.00586 -55.2529 -22.0693 -110.137 -36.2021 -163.742c-4.50488 -17.0957 -9.08594 -34.1748 -13.6484 -51.2578c14.5186 1.74219 29.0273 3.57715 43.5166 5.60352c16.6904 2.33496 23.7793 -23.21 7.02832 -25.4883
c-19.1914 -2.60938 -38.418 -4.89355 -57.6699 -6.94824c-7.38477 -28.001 -14.5654 -56.0557 -21.0938 -84.2734c-12.3516 -53.3926 -29.4697 -113.274 -19.6162 -168.257c3.25293 -18.1504 -24.2412 -26.0264 -27.8887 -7.69141
c-10.6914 53.7139 3.53711 110.279 15.2197 162.754c7.05371 31.6836 15.0508 63.1279 23.3789 94.4902c-14.1904 -1.30664 -28.3936 -2.52051 -42.6152 -3.53711c-16.2734 -1.16309 -16.041 23.9326 0 25.2393c16.5957 1.35059 33.1562 2.96289 49.7041 4.71191
c15.9326 58.9482 32.4287 117.75 45.4463 177.428c5.32715 24.4199 12.4258 51.2451 7.94922 76.334c-2.30371 12.9121 -8.74902 19.0449 -22.2031 17.9424c-10.8193 -0.885742 -21.9697 -4.44434 -32.2637 -7.72559c-44.8379 -14.2979 -84.499 -41.1934 -123.271 -67.1455z
" />
    <glyph glyph-name="eight" unicode="8" horiz-adv-x="322" 
d="M73.2881 126.589c-19.6797 6.96484 -40.5088 15.873 -53.0293 33.4492c-14.7764 20.7402 -11.3799 47.0049 -3.62207 69.8252c16.127 47.4414 52.3574 86.8477 89.1641 119.563c37.1924 33.0635 81.9443 66.6299 130.481 80.3262
c20.3643 5.74707 44.2998 6.77246 58.792 -11.3008c13.4668 -16.7988 10.7334 -39.9893 7.77734 -59.7861c-8.74805 -58.5762 -30.9854 -115.03 -49.3486 -171.08c-10.0225 -30.5908 -20.0098 -61.1943 -30.0488 -91.7793
c20.7627 -14.2158 37.8076 -32.665 44.4502 -57.2822c12.4629 -46.1924 -12.9219 -98.6318 -44.418 -131.44c-28.4561 -29.6387 -85.1582 -61.4082 -115.112 -15.7354c-28.5391 43.5166 -13.291 109.143 -3.17285 156.064c4.63867 21.502 10.373 42.9463 17.7227 63.7725
c-16.9072 5.05566 -33.7764 9.79297 -49.6357 15.4033zM222.054 62.9346c-2.37305 2.21777 -4.82812 4.32227 -7.33496 6.34863c-6.18066 -18.7422 -12.3809 -37.4756 -18.6475 -56.1895c-5.50488 -16.4424 -31.4893 -9.45215 -26.1113 7.2002
c6.96777 21.5684 14.0117 43.1113 21.084 64.6445c-13.8555 7.57617 -28.7783 13.499 -44.0674 18.6543c-10.6279 -30.0234 -17.7871 -61.3887 -23.1357 -93.0625c-5.25 -31.0723 -10.8633 -69.9629 3.32031 -99.5508c16.9297 -35.3252 57.8301 -5.3877 75.9678 12.957
c34.9941 35.3955 61.3164 99.3877 18.9248 138.998zM37.5752 204.954c-5.51465 -32.0186 19.21 -44.5068 45.3564 -53.6279c16.3594 -5.70312 32.9932 -10.5684 49.5244 -15.7393c8.74219 20.2627 19.3223 39.6748 32.3555 57.6436
c9.00977 12.4189 29.8076 0.733398 20.8906 -12.2109c-11.667 -16.9365 -21.2529 -34.8154 -29.2783 -53.335c1.6123 -0.567383 3.23047 -1.11523 4.83594 -1.69824c12.2812 -4.45996 25.3369 -9.70996 37.998 -16.0625c11.9316 36.1855 23.9297 72.3516 35.877 108.53
c10.6094 32.123 21.8975 64.125 30.8848 96.752c4.31348 15.6553 8.06641 31.5049 10.6025 47.5527c1.87988 11.8838 6.39062 33.6533 -5.63281 41.6113c-10.4082 6.8877 -27.3984 0.0761719 -37.9346 -3.71484c-12.5684 -4.52441 -24.4551 -10.8486 -35.9688 -17.5713
c-24.2158 -14.1357 -47.126 -30.543 -68.2959 -48.9258c-38.3232 -33.2764 -82.2246 -76.9873 -91.2148 -129.204z" />
    <glyph glyph-name="nine" unicode="9" horiz-adv-x="338" 
d="M111.395 158.675c-15.4834 -9.3252 -36.3867 -14.2773 -50.6689 -0.134766c-14.3848 14.2471 -11.7148 38.0518 -6.82129 55.8096c12.0811 43.8252 40.3779 85.4648 70.5547 118.834c29.2334 32.3242 67.4199 66.627 113.615 66.085
c15.3975 -0.181641 15.375 -23.7314 0 -23.8936c-48.626 -0.509766 -91.0107 -49.9805 -117.304 -86.3311c-13.4863 -18.6436 -25.2012 -38.7275 -34.542 -59.7637c-5.32031 -11.9785 -10.6729 -25.5986 -10.8672 -38.9287
c-0.267578 -18.3506 12.9512 -16.3877 25.1406 -8.45508c41.8057 27.2109 73.209 72.6582 102.634 111.963c32.0312 42.7832 61.8828 87.1436 89.7207 132.763c6.52148 10.6914 23.8213 6.39648 23.7803 -6.43945c-0.216797 -68.5059 -2.14062 -137.003 -6.24707 -205.388
c-3.43164 -57.1426 -7.98145 -114.272 -15.9463 -170.981c-4.07812 -29.043 -9.1377 -57.9648 -15.6436 -86.5674c-5.97949 -26.293 -11.9912 -53.7646 -24.9551 -77.6592c-8.87891 -16.3691 -28.832 -31.3203 -43.4902 -11.1475
c-12.7725 17.5762 -8.76172 50.8174 -7.12402 71.0283c4.54004 55.998 24.0537 109.189 47.209 159.925c5.34961 11.7207 18.8867 8.04688 23.9492 -0.892578c11.042 91.626 15.1992 184.612 16.3682 276.841c-25.1113 -38.8135 -51.7676 -76.6074 -79.9883 -113.255
c-28.3994 -36.8828 -58.7734 -78.9561 -99.374 -103.411zM247.565 -53.0098c7.77344 30.3584 13.8164 61.1436 18.6592 92.1045c2.00684 12.8262 3.82324 25.6943 5.53125 38.584c-23.8145 -54.6895 -43.5732 -112.938 -40.4512 -173.329
c0.0195312 -0.381836 0.246094 -2.21094 0.456055 -4.62891c2.16992 4.28516 4.08105 8.11133 4.29102 8.65332c4.84277 12.5078 8.19434 25.6436 11.5137 38.6162z" />
    <glyph glyph-name="colon" unicode=":" horiz-adv-x="64" 
d="M40.0723 238.292c-0.544922 -6.7666 -5.29199 -12.5186 -12.5176 -12.5215c-6.35547 0 -13.0967 5.77246 -12.5205 12.5205c0.834961 9.81543 1.6377 19.6377 2.61621 29.4443c0.666016 6.66211 5.11719 12.3457 12.3457 12.3457
c6.35547 0 12.7842 -5.68652 12.3447 -12.3447c-0.650391 -9.82227 -1.47559 -19.6318 -2.26855 -29.4443zM48.002 48.7236c0.456055 -17.3633 -1.43457 -34.4814 -0.0263672 -51.915c1.23926 -15.3369 -23.3555 -15.5117 -24.0439 0
c-0.790039 17.8379 -1.50977 37.3389 2.99805 54.7656c3.10352 12.0049 20.7598 9.01367 21.0723 -2.85059z" />
    <glyph glyph-name="semicolon" unicode=";" horiz-adv-x="73" 
d="M54.3281 277.934c5.16406 -11.3672 2.25879 -27.3896 1.47852 -39.6455c-0.974609 -15.4512 -24.4707 -15.7158 -24.2412 0c0.0986328 6.58887 0.328125 13.1514 0.65332 19.7334c0.34082 6.89453 0.0791016 13.751 3.49805 19.9121
c3.6543 6.58203 15.2188 7.4707 18.6113 0zM24.7373 43.9092c4.20898 16.793 30.2051 9.62793 25.9199 -7.14941c-10.6758 -41.8057 -20.8926 -83.7197 -30.4531 -125.799c-3.68652 -16.2285 -28.377 -9.29883 -24.8633 6.85645
c9.17188 42.1748 18.9082 84.2227 29.3965 126.092z" />
    <glyph glyph-name="less" unicode="&#x3c;" horiz-adv-x="276" 
d="M249.248 279.887c11.584 3.59375 19.6074 -14.8359 8.33594 -19.79c-38.4375 -16.9014 -77.0693 -32.7354 -114.373 -52.1406c-18.6211 -9.68555 -36.9619 -19.9121 -54.9844 -30.668c-9.0127 -5.38086 -17.9463 -10.8984 -26.7998 -16.541
c-1.80957 -1.15332 -4.86133 -2.71777 -8.16211 -4.53711c7.31152 0.474609 14.623 0.99707 21.9316 1.5166c14.5244 1.03516 29.0518 2.07422 43.5762 3.11328c31.123 2.2207 62.2461 4.51758 93.3789 6.60449c17.9521 1.20117 17.7803 -26.6211 0 -27.876
c-47.5303 -3.3584 -95.0859 -6.40137 -142.636 -9.51074c-14.4639 -0.946289 -39.1445 -7.64648 -51.1904 3.2207c-11.0771 9.99414 -6.14844 24.4229 3.64844 33.165c15.1045 13.4766 35.6602 23.2188 53.1191 33.3213c18.1719 10.5166 36.6592 20.4951 55.4238 29.9189
c38.1445 19.1602 77.8945 37.5332 118.731 50.2031z" />
    <glyph glyph-name="equal" unicode="=" horiz-adv-x="371" 
d="M343.251 256.114c17.4941 -0.283203 17.4443 -26.7539 -0.00195312 -27.1328c-52.5645 -1.14648 -105.059 -1.93945 -157.559 -5.1123c-52.4717 -3.17285 -104.574 -9.5127 -156.944 -13.6133c-13.8936 -1.08594 -16.9326 21.9707 -3.28711 24.2998
c51.7197 8.82812 104.777 12.7021 157.087 16.2256c53.4238 3.59668 107.15 6.19336 160.705 5.33301zM336.233 182.948c17.749 1.04199 17.5703 -26.3857 0 -27.5293c-102.917 -6.69043 -204.859 -19.4629 -306.613 -36.125
c-15.5469 -2.54883 -22.4795 20.7686 -6.61719 23.999c103.083 20.9922 208.246 33.5 313.23 39.6553z" />
    <glyph glyph-name="greater" unicode="&#x3e;" horiz-adv-x="239" 
d="M152.316 245.336c19.5615 -4.1543 78.709 -6.33691 71.5342 -39.54c-3.00098 -13.9004 -20.0938 -23.8691 -31.4707 -30.1514c-16.6494 -9.19434 -34.5889 -16.3145 -52.0156 -23.8711c-36.3223 -15.751 -72.9121 -30.8682 -109.582 -45.7939
c-16.7773 -6.82715 -23.9326 20.3105 -7.46484 27.0742c28.9629 11.8926 57.9766 23.6582 86.8408 35.7871c26.2363 11.0234 56.2188 20.4756 79.667 36.9082c1.58301 1.02246 3.08008 2.15625 4.5332 3.34766c-0.671875 0.15918 -1.43359 0.535156 -2.30957 1.19434
c-7.29883 -0.50293 -17.6494 3.87402 -24.8398 5.4541c-16.5566 3.6416 -33.1172 7.28906 -49.6738 10.9336c-30.5977 6.73535 -63.25 11.3135 -92.7676 21.8555c-10.9941 3.92773 -10.1367 22.6963 2.92578 21.6104c41.6201 -3.46289 83.8018 -16.1367 124.623 -24.8086z
" />
    <glyph glyph-name="question" unicode="?" horiz-adv-x="311" 
d="M290.596 457.271c13.9033 -20.8164 6.16211 -51.9268 0.799805 -74.3428c-27.791 -116.18 -78.0449 -225.963 -94.0635 -345.064c-2.15039 -15.9775 -30.1992 -12.0332 -28.1123 3.80371c15.375 116.636 63.9502 224.246 93.8467 337.24
c3.72461 14.0781 7.59277 28.3223 8.41504 42.9229c0.325195 5.77637 1.62793 15.3281 -2.10254 20.3047c-5.65527 7.53809 -17.1689 5.90039 -25.0029 4.42871c-26.0732 -4.89062 -51.4678 -21.6455 -72.7939 -36.708
c-21.5625 -15.2285 -41.1621 -33.293 -58.4551 -53.2236c-8.29883 -9.56445 -16.1455 -19.5811 -23.0049 -30.2314c-2.59668 -4.02734 -26.2998 -46.1387 -10.584 -46.3008c15.5381 -0.162109 15.4902 -23.7949 0 -24.0947
c-30.6543 -0.595703 -33.8916 32.6904 -25.6465 55.0967c9.90137 26.9053 28.7168 50.4717 47.9277 71.3965c33.2637 36.2363 77.5664 71.0801 124.925 86.3467c20.877 6.73145 49.9512 9.24219 63.8516 -11.5742zM175.592 -14.9902
c1.16895 15.6973 25.335 16 24.6914 0.00390625c-1.06445 -26.4043 -3.40918 -52.6338 -6.96484 -78.8154c-1.94336 -14.3115 -26.8828 -10.8008 -25.1787 3.40527c3.01074 25.0889 5.57227 50.2061 7.45215 75.4062z" />
    <glyph glyph-name="at" unicode="@" horiz-adv-x="454" 
d="M398.772 424.846c45.9219 -37.8896 41.9932 -98.5879 31.7217 -151.56c-11.7559 -60.7295 -34.1592 -120.058 -65.6992 -173.297c-21.7178 -36.6533 -77.3877 -106.364 -122.856 -58.917c-19.2617 20.0996 -20.0166 50.165 -20.3125 76.3535
c-0.204102 17.9873 0.621094 35.9365 1.93066 53.8574c-7.2666 -10.7305 -14.5303 -21.4609 -21.8037 -32.1875c-14.1299 -20.8389 -27.9756 -43.2041 -45.3008 -61.625c-11.0801 -11.7812 -34.4707 -27.6338 -47.9307 -10.4141
c-11.9023 15.2285 2.0293 42.5225 7.80566 58.0088c16.1338 43.2646 41.1299 89.9922 76.1426 121.026c15.9424 14.1299 37.0908 24.2549 58.2354 15.5068c19.0967 -7.89746 29.0811 -27.7617 32.3467 -47.1348c2.66309 -15.8018 -21.2822 -22.6992 -24.29 -6.69629
c-0.895508 4.75977 -2.3418 9.86328 -4.42188 14.5557c0.0126953 -0.541992 0.0410156 -1.07129 -0.0166016 -1.65137c-3.07715 -31.2822 -6.24414 -62.6631 -6.23145 -94.127c0.00976562 -20.5176 -2.66016 -75.5986 30.1895 -73.1777
c26.2012 1.93066 47.7217 36.2871 59.7578 56.0811c15.0566 24.7607 27.9434 51.0479 38.4443 78.0479c18.2393 46.8896 34.6973 100.916 33.0342 151.728c-1.55176 47.3936 -34.8984 79.7461 -80.8711 86.6465c-47.2695 7.09473 -93.1113 -17.1943 -128.411 -46.5078
c-36.4883 -30.3008 -67.6523 -67.1777 -92.5566 -107.473c-24.9492 -40.3652 -43.6055 -84.2988 -55.0557 -130.36c-12.7783 -51.4141 -17.5635 -109.282 9.23633 -157.239c24.4355 -43.7324 70.0381 -62.9023 118.798 -61.2393
c52.1943 1.78125 100.429 25.9365 146.344 48.5693c16.2256 7.99707 30.4854 -16.3115 14.2217 -24.3271c-60.6846 -29.916 -125.429 -60.4785 -194.941 -50.4434c-62.4434 9.01953 -108.849 53.125 -125.116 113.632c-16.165 60.1309 -2.72656 125.955 17.8896 183.343
c19.3516 53.8701 47.9453 103.841 84.4141 147.946c62.7656 75.9102 180.854 161.009 275.304 83.0752zM229.827 227.304c4.07812 6.03711 13.002 7.42969 18.8955 4.29785c-5.22461 6.18359 -12.5391 9.53809 -22.5205 6.2666
c-15.2314 -4.99219 -27 -21.1162 -36.4717 -33.1943c-20.9375 -26.6982 -37.7715 -57.1016 -49.3145 -88.9951c-3.00098 -8.29004 -5.6709 -16.6914 -8.00977 -25.1914c0.802734 0.688477 1.60547 1.37305 2.4082 2.05762c13.0879 11.8291 23.0059 28.501 32.9365 42.9326
c20.9404 30.4346 41.4033 61.21 62.0762 91.8262z" />
    <glyph glyph-name="A" unicode="A" horiz-adv-x="555" 
d="M-27.2588 -304.4c-38.7822 93.0381 -16.5625 207.049 12.7988 299.491c27.4434 86.4043 69.6855 167.941 125.372 239.516c46.8545 60.2197 103.7 113.064 168.377 153.679c0 0.0126953 0.00292969 0.0253906 0.00585938 0.0351562
c12.8809 53.7969 26.6182 107.406 42.1816 160.496c7.63672 26.0576 15.707 51.9912 24.3379 77.7393c7.35352 21.9346 15.1172 44.3223 29.5625 62.7305c10.0449 12.8037 26.373 18.3662 38.7568 4.9248c13.668 -14.834 12.5303 -42.1533 14.5439 -60.8643
c6.00879 -55.8613 7.34082 -112.08 8.79688 -168.206c0.0859375 -3.37109 0.197266 -6.74219 0.290039 -10.1133c7.50879 1.50684 15.0654 2.79395 22.6826 3.78516c37.6514 4.88672 106.951 4.81348 103.896 -50.5283
c-0.757812 -13.7412 -21.5742 -13.9229 -21.5039 -0.000976562c0.15918 32.0088 -43.8828 29.0234 -65.416 27.207c-13.0654 -1.10254 -26.0547 -3.08398 -38.9287 -5.79883c6.61426 -216.873 22.2539 -433.195 45.3838 -648.95
c2.00391 -18.6953 -27.1348 -18.4404 -29.1709 0c-3.24023 29.3516 -6.2832 58.7256 -9.13477 88.1221c-11.6094 119.649 -20.2969 239.602 -26.3945 359.655c-3.29395 64.8457 -4.63184 129.81 -6.35254 194.744c-38.3936 -11.1318 -75.4551 -28.5938 -110.038 -49.751
c-20.1504 -84.582 -38.3359 -169.63 -58.3369 -254.247c-25.4199 -107.546 -51.6465 -217.44 -94.7422 -319.52c-18.6602 -44.2012 -42.1494 -96.708 -80.4092 -127.522c-15.6074 -12.5752 -35.376 -21.7725 -55.7559 -16.8379
c-20.3037 4.91895 -33.124 21.791 -40.8018 40.2148zM322.099 451.648c-3.85156 -14.9326 -7.59082 -29.8916 -11.2676 -44.8652c0.891602 0.484375 1.76758 1 2.66309 1.48145c31.3242 16.8506 64.333 31.1523 98.6416 40.6592
c-1.27441 44.2334 -2.87695 88.4404 -5.55957 132.578c-0.926758 15.2764 -2.10254 30.5332 -3.6377 45.7588c-1.36719 13.5469 -5.84668 29.1133 -5.49609 42.5732c0.00292969 0.136719 -0.701172 2.9375 -0.529297 4.75391
c-1.75195 -2.18848 -4.32617 -6.20605 -4.92871 -7.11426c-2.88965 -4.36426 -5.40625 -9.02539 -7.7002 -13.7275c-5.79492 -11.874 -9.85059 -24.5479 -14.0244 -37.0527c-18.1465 -54.377 -33.834 -109.55 -48.1611 -165.045zM-19.7627 -160.079
c-1.83789 -26.6113 -1.58398 -53.6348 2.41406 -80.0557c3.37402 -22.2822 7.62695 -52.8506 23.1963 -70.4209c36.9785 -41.7285 87.5039 53.7207 100.362 78.3477c48.3779 92.6621 73.6768 198.877 98.7979 299.724c23.5693 94.6143 43.7266 190.022 65.8467 284.975
c-18.1211 -12.7852 -35.3857 -26.4268 -51.5859 -40.502c-65.7314 -57.1172 -119.194 -127.232 -159.324 -204.385c-42.665 -82.0273 -73.3066 -175.091 -79.707 -267.683z" />
    <glyph glyph-name="A" unicode="&#xc5;" horiz-adv-x="555" 
d="M-27.2588 -304.4c-38.7822 93.0381 -16.5625 207.049 12.7988 299.491c27.4434 86.4043 69.6855 167.941 125.372 239.516c46.8545 60.2197 103.7 113.064 168.377 153.679c0 0.0126953 0.00292969 0.0253906 0.00585938 0.0351562
c12.8809 53.7969 26.6182 107.406 42.1816 160.496c7.63672 26.0576 15.707 51.9912 24.3379 77.7393c7.35352 21.9346 15.1172 44.3223 29.5625 62.7305c10.0449 12.8037 26.373 18.3662 38.7568 4.9248c13.668 -14.834 12.5303 -42.1533 14.5439 -60.8643
c6.00879 -55.8613 7.34082 -112.08 8.79688 -168.206c0.0859375 -3.37109 0.197266 -6.74219 0.290039 -10.1133c7.50879 1.50684 15.0654 2.79395 22.6826 3.78516c37.6514 4.88672 106.951 4.81348 103.896 -50.5283
c-0.757812 -13.7412 -21.5742 -13.9229 -21.5039 -0.000976562c0.15918 32.0088 -43.8828 29.0234 -65.416 27.207c-13.0654 -1.10254 -26.0547 -3.08398 -38.9287 -5.79883c6.61426 -216.873 22.2539 -433.195 45.3838 -648.95
c2.00391 -18.6953 -27.1348 -18.4404 -29.1709 0c-3.24023 29.3516 -6.2832 58.7256 -9.13477 88.1221c-11.6094 119.649 -20.2969 239.602 -26.3945 359.655c-3.29395 64.8457 -4.63184 129.81 -6.35254 194.744c-38.3936 -11.1318 -75.4551 -28.5938 -110.038 -49.751
c-20.1504 -84.582 -38.3359 -169.63 -58.3369 -254.247c-25.4199 -107.546 -51.6465 -217.44 -94.7422 -319.52c-18.6602 -44.2012 -42.1494 -96.708 -80.4092 -127.522c-15.6074 -12.5752 -35.376 -21.7725 -55.7559 -16.8379
c-20.3037 4.91895 -33.124 21.791 -40.8018 40.2148zM322.099 451.648c-3.85156 -14.9326 -7.59082 -29.8916 -11.2676 -44.8652c0.891602 0.484375 1.76758 1 2.66309 1.48145c31.3242 16.8506 64.333 31.1523 98.6416 40.6592
c-1.27441 44.2334 -2.87695 88.4404 -5.55957 132.578c-0.926758 15.2764 -2.10254 30.5332 -3.6377 45.7588c-1.36719 13.5469 -5.84668 29.1133 -5.49609 42.5732c0.00292969 0.136719 -0.701172 2.9375 -0.529297 4.75391
c-1.75195 -2.18848 -4.32617 -6.20605 -4.92871 -7.11426c-2.88965 -4.36426 -5.40625 -9.02539 -7.7002 -13.7275c-5.79492 -11.874 -9.85059 -24.5479 -14.0244 -37.0527c-18.1465 -54.377 -33.834 -109.55 -48.1611 -165.045zM-19.7627 -160.079
c-1.83789 -26.6113 -1.58398 -53.6348 2.41406 -80.0557c3.37402 -22.2822 7.62695 -52.8506 23.1963 -70.4209c36.9785 -41.7285 87.5039 53.7207 100.362 78.3477c48.3779 92.6621 73.6768 198.877 98.7979 299.724c23.5693 94.6143 43.7266 190.022 65.8467 284.975
c-18.1211 -12.7852 -35.3857 -26.4268 -51.5859 -40.502c-65.7314 -57.1172 -119.194 -127.232 -159.324 -204.385c-42.665 -82.0273 -73.3066 -175.091 -79.707 -267.683z" />
    <glyph glyph-name="A" unicode="&#xc4;" horiz-adv-x="555" 
d="M-27.2588 -304.4c-38.7822 93.0381 -16.5625 207.049 12.7988 299.491c27.4434 86.4043 69.6855 167.941 125.372 239.516c46.8545 60.2197 103.7 113.064 168.377 153.679c0 0.0126953 0.00292969 0.0253906 0.00585938 0.0351562
c12.8809 53.7969 26.6182 107.406 42.1816 160.496c7.63672 26.0576 15.707 51.9912 24.3379 77.7393c7.35352 21.9346 15.1172 44.3223 29.5625 62.7305c10.0449 12.8037 26.373 18.3662 38.7568 4.9248c13.668 -14.834 12.5303 -42.1533 14.5439 -60.8643
c6.00879 -55.8613 7.34082 -112.08 8.79688 -168.206c0.0859375 -3.37109 0.197266 -6.74219 0.290039 -10.1133c7.50879 1.50684 15.0654 2.79395 22.6826 3.78516c37.6514 4.88672 106.951 4.81348 103.896 -50.5283
c-0.757812 -13.7412 -21.5742 -13.9229 -21.5039 -0.000976562c0.15918 32.0088 -43.8828 29.0234 -65.416 27.207c-13.0654 -1.10254 -26.0547 -3.08398 -38.9287 -5.79883c6.61426 -216.873 22.2539 -433.195 45.3838 -648.95
c2.00391 -18.6953 -27.1348 -18.4404 -29.1709 0c-3.24023 29.3516 -6.2832 58.7256 -9.13477 88.1221c-11.6094 119.649 -20.2969 239.602 -26.3945 359.655c-3.29395 64.8457 -4.63184 129.81 -6.35254 194.744c-38.3936 -11.1318 -75.4551 -28.5938 -110.038 -49.751
c-20.1504 -84.582 -38.3359 -169.63 -58.3369 -254.247c-25.4199 -107.546 -51.6465 -217.44 -94.7422 -319.52c-18.6602 -44.2012 -42.1494 -96.708 -80.4092 -127.522c-15.6074 -12.5752 -35.376 -21.7725 -55.7559 -16.8379
c-20.3037 4.91895 -33.124 21.791 -40.8018 40.2148zM322.099 451.648c-3.85156 -14.9326 -7.59082 -29.8916 -11.2676 -44.8652c0.891602 0.484375 1.76758 1 2.66309 1.48145c31.3242 16.8506 64.333 31.1523 98.6416 40.6592
c-1.27441 44.2334 -2.87695 88.4404 -5.55957 132.578c-0.926758 15.2764 -2.10254 30.5332 -3.6377 45.7588c-1.36719 13.5469 -5.84668 29.1133 -5.49609 42.5732c0.00292969 0.136719 -0.701172 2.9375 -0.529297 4.75391
c-1.75195 -2.18848 -4.32617 -6.20605 -4.92871 -7.11426c-2.88965 -4.36426 -5.40625 -9.02539 -7.7002 -13.7275c-5.79492 -11.874 -9.85059 -24.5479 -14.0244 -37.0527c-18.1465 -54.377 -33.834 -109.55 -48.1611 -165.045zM-19.7627 -160.079
c-1.83789 -26.6113 -1.58398 -53.6348 2.41406 -80.0557c3.37402 -22.2822 7.62695 -52.8506 23.1963 -70.4209c36.9785 -41.7285 87.5039 53.7207 100.362 78.3477c48.3779 92.6621 73.6768 198.877 98.7979 299.724c23.5693 94.6143 43.7266 190.022 65.8467 284.975
c-18.1211 -12.7852 -35.3857 -26.4268 -51.5859 -40.502c-65.7314 -57.1172 -119.194 -127.232 -159.324 -204.385c-42.665 -82.0273 -73.3066 -175.091 -79.707 -267.683z" />
    <glyph glyph-name="A" unicode="&#xc3;" horiz-adv-x="555" 
d="M-27.2588 -304.4c-38.7822 93.0381 -16.5625 207.049 12.7988 299.491c27.4434 86.4043 69.6855 167.941 125.372 239.516c46.8545 60.2197 103.7 113.064 168.377 153.679c0 0.0126953 0.00292969 0.0253906 0.00585938 0.0351562
c12.8809 53.7969 26.6182 107.406 42.1816 160.496c7.63672 26.0576 15.707 51.9912 24.3379 77.7393c7.35352 21.9346 15.1172 44.3223 29.5625 62.7305c10.0449 12.8037 26.373 18.3662 38.7568 4.9248c13.668 -14.834 12.5303 -42.1533 14.5439 -60.8643
c6.00879 -55.8613 7.34082 -112.08 8.79688 -168.206c0.0859375 -3.37109 0.197266 -6.74219 0.290039 -10.1133c7.50879 1.50684 15.0654 2.79395 22.6826 3.78516c37.6514 4.88672 106.951 4.81348 103.896 -50.5283
c-0.757812 -13.7412 -21.5742 -13.9229 -21.5039 -0.000976562c0.15918 32.0088 -43.8828 29.0234 -65.416 27.207c-13.0654 -1.10254 -26.0547 -3.08398 -38.9287 -5.79883c6.61426 -216.873 22.2539 -433.195 45.3838 -648.95
c2.00391 -18.6953 -27.1348 -18.4404 -29.1709 0c-3.24023 29.3516 -6.2832 58.7256 -9.13477 88.1221c-11.6094 119.649 -20.2969 239.602 -26.3945 359.655c-3.29395 64.8457 -4.63184 129.81 -6.35254 194.744c-38.3936 -11.1318 -75.4551 -28.5938 -110.038 -49.751
c-20.1504 -84.582 -38.3359 -169.63 -58.3369 -254.247c-25.4199 -107.546 -51.6465 -217.44 -94.7422 -319.52c-18.6602 -44.2012 -42.1494 -96.708 -80.4092 -127.522c-15.6074 -12.5752 -35.376 -21.7725 -55.7559 -16.8379
c-20.3037 4.91895 -33.124 21.791 -40.8018 40.2148zM322.099 451.648c-3.85156 -14.9326 -7.59082 -29.8916 -11.2676 -44.8652c0.891602 0.484375 1.76758 1 2.66309 1.48145c31.3242 16.8506 64.333 31.1523 98.6416 40.6592
c-1.27441 44.2334 -2.87695 88.4404 -5.55957 132.578c-0.926758 15.2764 -2.10254 30.5332 -3.6377 45.7588c-1.36719 13.5469 -5.84668 29.1133 -5.49609 42.5732c0.00292969 0.136719 -0.701172 2.9375 -0.529297 4.75391
c-1.75195 -2.18848 -4.32617 -6.20605 -4.92871 -7.11426c-2.88965 -4.36426 -5.40625 -9.02539 -7.7002 -13.7275c-5.79492 -11.874 -9.85059 -24.5479 -14.0244 -37.0527c-18.1465 -54.377 -33.834 -109.55 -48.1611 -165.045zM-19.7627 -160.079
c-1.83789 -26.6113 -1.58398 -53.6348 2.41406 -80.0557c3.37402 -22.2822 7.62695 -52.8506 23.1963 -70.4209c36.9785 -41.7285 87.5039 53.7207 100.362 78.3477c48.3779 92.6621 73.6768 198.877 98.7979 299.724c23.5693 94.6143 43.7266 190.022 65.8467 284.975
c-18.1211 -12.7852 -35.3857 -26.4268 -51.5859 -40.502c-65.7314 -57.1172 -119.194 -127.232 -159.324 -204.385c-42.665 -82.0273 -73.3066 -175.091 -79.707 -267.683z" />
    <glyph glyph-name="A" unicode="&#xc2;" horiz-adv-x="555" 
d="M-27.2588 -304.4c-38.7822 93.0381 -16.5625 207.049 12.7988 299.491c27.4434 86.4043 69.6855 167.941 125.372 239.516c46.8545 60.2197 103.7 113.064 168.377 153.679c0 0.0126953 0.00292969 0.0253906 0.00585938 0.0351562
c12.8809 53.7969 26.6182 107.406 42.1816 160.496c7.63672 26.0576 15.707 51.9912 24.3379 77.7393c7.35352 21.9346 15.1172 44.3223 29.5625 62.7305c10.0449 12.8037 26.373 18.3662 38.7568 4.9248c13.668 -14.834 12.5303 -42.1533 14.5439 -60.8643
c6.00879 -55.8613 7.34082 -112.08 8.79688 -168.206c0.0859375 -3.37109 0.197266 -6.74219 0.290039 -10.1133c7.50879 1.50684 15.0654 2.79395 22.6826 3.78516c37.6514 4.88672 106.951 4.81348 103.896 -50.5283
c-0.757812 -13.7412 -21.5742 -13.9229 -21.5039 -0.000976562c0.15918 32.0088 -43.8828 29.0234 -65.416 27.207c-13.0654 -1.10254 -26.0547 -3.08398 -38.9287 -5.79883c6.61426 -216.873 22.2539 -433.195 45.3838 -648.95
c2.00391 -18.6953 -27.1348 -18.4404 -29.1709 0c-3.24023 29.3516 -6.2832 58.7256 -9.13477 88.1221c-11.6094 119.649 -20.2969 239.602 -26.3945 359.655c-3.29395 64.8457 -4.63184 129.81 -6.35254 194.744c-38.3936 -11.1318 -75.4551 -28.5938 -110.038 -49.751
c-20.1504 -84.582 -38.3359 -169.63 -58.3369 -254.247c-25.4199 -107.546 -51.6465 -217.44 -94.7422 -319.52c-18.6602 -44.2012 -42.1494 -96.708 -80.4092 -127.522c-15.6074 -12.5752 -35.376 -21.7725 -55.7559 -16.8379
c-20.3037 4.91895 -33.124 21.791 -40.8018 40.2148zM322.099 451.648c-3.85156 -14.9326 -7.59082 -29.8916 -11.2676 -44.8652c0.891602 0.484375 1.76758 1 2.66309 1.48145c31.3242 16.8506 64.333 31.1523 98.6416 40.6592
c-1.27441 44.2334 -2.87695 88.4404 -5.55957 132.578c-0.926758 15.2764 -2.10254 30.5332 -3.6377 45.7588c-1.36719 13.5469 -5.84668 29.1133 -5.49609 42.5732c0.00292969 0.136719 -0.701172 2.9375 -0.529297 4.75391
c-1.75195 -2.18848 -4.32617 -6.20605 -4.92871 -7.11426c-2.88965 -4.36426 -5.40625 -9.02539 -7.7002 -13.7275c-5.79492 -11.874 -9.85059 -24.5479 -14.0244 -37.0527c-18.1465 -54.377 -33.834 -109.55 -48.1611 -165.045zM-19.7627 -160.079
c-1.83789 -26.6113 -1.58398 -53.6348 2.41406 -80.0557c3.37402 -22.2822 7.62695 -52.8506 23.1963 -70.4209c36.9785 -41.7285 87.5039 53.7207 100.362 78.3477c48.3779 92.6621 73.6768 198.877 98.7979 299.724c23.5693 94.6143 43.7266 190.022 65.8467 284.975
c-18.1211 -12.7852 -35.3857 -26.4268 -51.5859 -40.502c-65.7314 -57.1172 -119.194 -127.232 -159.324 -204.385c-42.665 -82.0273 -73.3066 -175.091 -79.707 -267.683z" />
    <glyph glyph-name="A" unicode="&#xc1;" horiz-adv-x="555" 
d="M-27.2588 -304.4c-38.7822 93.0381 -16.5625 207.049 12.7988 299.491c27.4434 86.4043 69.6855 167.941 125.372 239.516c46.8545 60.2197 103.7 113.064 168.377 153.679c0 0.0126953 0.00292969 0.0253906 0.00585938 0.0351562
c12.8809 53.7969 26.6182 107.406 42.1816 160.496c7.63672 26.0576 15.707 51.9912 24.3379 77.7393c7.35352 21.9346 15.1172 44.3223 29.5625 62.7305c10.0449 12.8037 26.373 18.3662 38.7568 4.9248c13.668 -14.834 12.5303 -42.1533 14.5439 -60.8643
c6.00879 -55.8613 7.34082 -112.08 8.79688 -168.206c0.0859375 -3.37109 0.197266 -6.74219 0.290039 -10.1133c7.50879 1.50684 15.0654 2.79395 22.6826 3.78516c37.6514 4.88672 106.951 4.81348 103.896 -50.5283
c-0.757812 -13.7412 -21.5742 -13.9229 -21.5039 -0.000976562c0.15918 32.0088 -43.8828 29.0234 -65.416 27.207c-13.0654 -1.10254 -26.0547 -3.08398 -38.9287 -5.79883c6.61426 -216.873 22.2539 -433.195 45.3838 -648.95
c2.00391 -18.6953 -27.1348 -18.4404 -29.1709 0c-3.24023 29.3516 -6.2832 58.7256 -9.13477 88.1221c-11.6094 119.649 -20.2969 239.602 -26.3945 359.655c-3.29395 64.8457 -4.63184 129.81 -6.35254 194.744c-38.3936 -11.1318 -75.4551 -28.5938 -110.038 -49.751
c-20.1504 -84.582 -38.3359 -169.63 -58.3369 -254.247c-25.4199 -107.546 -51.6465 -217.44 -94.7422 -319.52c-18.6602 -44.2012 -42.1494 -96.708 -80.4092 -127.522c-15.6074 -12.5752 -35.376 -21.7725 -55.7559 -16.8379
c-20.3037 4.91895 -33.124 21.791 -40.8018 40.2148zM322.099 451.648c-3.85156 -14.9326 -7.59082 -29.8916 -11.2676 -44.8652c0.891602 0.484375 1.76758 1 2.66309 1.48145c31.3242 16.8506 64.333 31.1523 98.6416 40.6592
c-1.27441 44.2334 -2.87695 88.4404 -5.55957 132.578c-0.926758 15.2764 -2.10254 30.5332 -3.6377 45.7588c-1.36719 13.5469 -5.84668 29.1133 -5.49609 42.5732c0.00292969 0.136719 -0.701172 2.9375 -0.529297 4.75391
c-1.75195 -2.18848 -4.32617 -6.20605 -4.92871 -7.11426c-2.88965 -4.36426 -5.40625 -9.02539 -7.7002 -13.7275c-5.79492 -11.874 -9.85059 -24.5479 -14.0244 -37.0527c-18.1465 -54.377 -33.834 -109.55 -48.1611 -165.045zM-19.7627 -160.079
c-1.83789 -26.6113 -1.58398 -53.6348 2.41406 -80.0557c3.37402 -22.2822 7.62695 -52.8506 23.1963 -70.4209c36.9785 -41.7285 87.5039 53.7207 100.362 78.3477c48.3779 92.6621 73.6768 198.877 98.7979 299.724c23.5693 94.6143 43.7266 190.022 65.8467 284.975
c-18.1211 -12.7852 -35.3857 -26.4268 -51.5859 -40.502c-65.7314 -57.1172 -119.194 -127.232 -159.324 -204.385c-42.665 -82.0273 -73.3066 -175.091 -79.707 -267.683z" />
    <glyph glyph-name="B" unicode="B" horiz-adv-x="610" 
d="M9.35059 279.488c31.3076 60.5 73.5527 115.443 116.881 167.749c44.6055 53.8516 92.9766 104.587 144.639 151.71c49.9805 45.5869 102.856 90.0234 162.13 123.112c34.1367 19.0547 127.388 70.6758 142.088 2.91211
c6.2793 -28.9404 -8.10547 -63.8516 -17.9277 -90.4248c-11.8711 -32.123 -26.7178 -63.0645 -41.832 -93.7578c-58.1777 -118.168 -122.135 -233.57 -185.203 -349.253c33.9199 29.6953 65.0107 62.8223 100.616 90.584c36.9434 28.8096 97.998 69.0059 146.803 46.9658
c59.959 -27.0742 23.3086 -117.897 5.4834 -160.464c-48.4004 -115.571 -113.08 -228.849 -213.818 -306.419c-11.8232 -9.10547 -24.9297 7.92969 -19.0137 19.0137c19.8135 37.1221 44.0518 71.5771 71.5488 103.392c8.6875 10.0547 21.6094 1.9502 23.1836 -8.44238
c12.8359 16.5889 24.8086 33.876 35.9844 51.6436c30.4893 48.4639 56.582 100.406 78.3291 153.362c11.0361 26.873 21.9668 56.2246 23.5244 85.5156c0.716797 13.4863 -0.870117 28.9121 -13.6045 36.5547c-9.67285 5.80469 -22.6104 5.25684 -33.2705 3.34863
c-48.623 -8.69727 -90.5811 -45.1758 -125.709 -77.5225c-37.2656 -34.3184 -72.709 -70.7998 -115.409 -98.5459c-11.8164 -7.68164 -24.5635 7.14844 -18.4531 18.4521c75.6074 139.87 154.414 278.562 223.739 421.7c14.626 30.2021 28.5674 60.8027 38.6504 92.8652
c6.00586 19.084 26.1084 72.833 -12.1992 68.4336c-29.1855 -3.35449 -59.7412 -21.4922 -84.7539 -35.8252c-27.8096 -15.9355 -54.1533 -34.4014 -79.3125 -54.2334c-101.703 -80.1631 -192.756 -175.784 -269.227 -280.212
c-18.9941 -25.9424 -37.0166 -52.6592 -52.7422 -80.7266c-4.15137 -7.41406 -8.15625 -14.9141 -11.9473 -22.5186c-3.16016 -6.33398 -9.13672 -14.8438 -10.0889 -21.8242c-1.11816 -8.19727 -1.3252 -3.89355 3.39941 -6.06641
c3.95703 -1.81934 11.7178 -1.16309 16.248 -1.39844c7.57617 -0.395508 15.1621 -0.49707 22.7314 -0.958984c59.5439 -3.60938 100.967 -42.3916 123.89 -95.6787c22.0879 -51.3506 33.6592 -108.219 42.4551 -163.959c7.66895 177.834 27.625 355.409 28.9375 533.481
c0.105469 14.5723 20.9287 14.002 22.2354 0c0.490234 -5.22461 0.977539 -10.4492 1.46484 -15.6738c0.251953 -2.70801 -0.34668 -4.88086 -1.48047 -6.54102c-1.21094 -250.242 -39.665 -499.408 -24.9336 -749.884
c1.00684 -17.0928 -24.9648 -16.7109 -26.3789 -0.000976562c-7.30176 86.3125 -14.1455 172.816 -30.333 258.026c-7.40723 38.9824 -15.9902 78.3789 -29.1006 115.893c-12.2207 34.9648 -32.04 70.3916 -66.2188 87.9043
c-15.4453 7.91016 -31.9707 9.56641 -49.0537 10.3027c-14.4385 0.624023 -32.1299 -0.695312 -45.6572 5.22754c-31.2891 13.7061 -7.71387 52.0391 2.70703 72.1807z" />
    <glyph glyph-name="C" unicode="C" horiz-adv-x="456" 
d="M38.0605 208.162c20.4531 63.8457 45.4062 126.548 77.0742 185.703c30.4951 56.9443 67.499 115.033 115.153 159.25c20.8105 19.3066 48.8496 43.0889 79.1982 40.6738c25.7998 -2.05469 41.666 -24.292 48.6816 -47.2051
c9.82227 -32.0693 7.28027 -67.9775 3.86133 -100.827c-3.7373 -35.9463 -8.84766 -71.7842 -14.4102 -107.488c-11.6504 -74.7764 -26.2256 -149.053 -40.9092 -223.281c-3.33887 -16.8691 -29.001 -9.67188 -25.7295 7.09277
c14.2979 73.2529 28.7236 146.506 40.2881 220.25c5.84277 37.2461 11.3701 74.6641 14.8047 112.22c2.74902 30.0527 6.46973 67.8213 -8.03223 95.5928c-30.2148 57.8682 -113.816 -52.7656 -132.361 -78.1221c-34.4521 -47.1094 -62.9209 -98.4053 -86.7002 -151.648
c-50.1523 -112.303 -89.8076 -239.06 -87.3799 -363.096c1.00684 -51.4492 7.87207 -108.792 39.1006 -151.604c36.3066 -49.7764 100.598 -51.4521 151.616 -23.8086c52.8887 28.6543 94.3721 78.6064 129.13 126.605c36.6885 50.6621 68.71 104.628 102.643 157.132
c7.73828 11.9756 26.5957 1.14648 19.2139 -11.2305c-40.1807 -67.3496 -79.9248 -135.92 -129.466 -196.962c-44.583 -54.9346 -102.624 -112.434 -176.709 -119.729c-141.26 -13.9131 -167.181 156.733 -161.389 260.861c3.97559 71.4473 20.5518 141.664 42.3213 209.622
z" />
    <glyph glyph-name="D" unicode="D" horiz-adv-x="655" 
d="M-3.33398 189.519c-9.14941 19.7236 0.981445 48.0117 6.99609 67.3789c14.5215 46.5967 39.3359 89.2021 66.5215 129.434c26.7773 39.626 55.8418 77.8252 87.3154 113.842c62.4307 71.4404 135.729 135.146 219.313 180.672
c41.9619 22.8525 89.3486 41.0342 137.939 35.7295c43.7041 -4.77246 81.8838 -27.0996 103.558 -65.9639c22.8848 -41.0342 28.7529 -91.3584 30.2373 -137.544c1.75586 -54.5938 -5.43164 -109.251 -15.8779 -162.732
c-19.7334 -101.024 -51.4492 -199.539 -93.4268 -293.497c-40.8174 -91.3652 -90.4023 -184.199 -156.774 -259.753c-16.4297 -18.708 -34.3213 -36.8867 -54.3506 -51.7676c-14.999 -11.1445 -35.8057 -19.5166 -53.334 -8.65918
c-35.3926 21.9287 -9.17578 85.0352 0.805664 114.132c15.0342 43.8408 36.0898 85.6816 62.7148 123.629c13.6416 19.4463 28.6123 38.0166 44.8828 55.3252c13.002 13.833 29.3262 34.4805 50.627 27.0508c7.53418 -2.62793 11.3926 -9.42676 9.77441 -17.2158
c-1.53516 -7.39453 -3.07031 -14.792 -4.60547 -22.1865c-3.31641 -15.9736 -25.6143 -11.2646 -27.1055 2.80469c-4.54297 -4.84277 -8.7168 -10.084 -10.6543 -12.168c-8.27344 -8.90137 -16.2158 -18.1182 -23.7666 -27.6406
c-15.4326 -19.459 -29.1514 -40.3359 -41.2549 -62.0127c-22.8301 -40.8945 -41.2002 -86.4941 -49.4199 -132.77c-1.55762 -8.75781 -4.91211 -24.5918 7.43359 -26.2607c10.6094 -1.43652 25.0283 14.1104 31.9609 20.2588
c17.8281 15.8086 34.1211 33.293 49.1934 51.7363c32.1709 39.3584 58.9863 83.2725 83.9512 127.454c46.1191 81.626 83.4199 168.095 111.332 257.593c28.4883 91.333 51.6875 188.483 50.9199 284.64c-0.347656 43.5986 -4.17676 92.1426 -24.4551 131.574
c-19.7109 38.333 -57.0654 57.7383 -99.4951 57.751c-47.167 0.0126953 -91.0586 -22.7061 -130.503 -46.4316c-36.5361 -21.9766 -70.9307 -47.333 -103.066 -75.3398c-65.4736 -57.0625 -121.845 -124.104 -170.401 -195.965
c-24.8408 -36.7656 -48.1396 -75.4268 -62.126 -117.764c-3.9668 -12.0137 -7.47461 -24.3848 -9.58008 -36.877c-0.981445 -5.82031 -3.78223 -14.623 1.61426 -19.501c2.94727 -2.66309 9.95898 -2.04492 13.5752 -2.11816
c18.6855 -0.375977 37.5078 3.30371 55.9668 5.63574c38.6768 4.89062 80.6855 5.41992 109.996 -24.5781c26.6338 -27.2549 33.2227 -67.2441 38.0908 -103.436c2.04883 -15.248 3.6416 -30.5244 4.92578 -45.8203c19.1699 155.832 42.1787 311.129 68.2998 466.101
c2.33203 13.8359 23.3174 7.92578 21.0234 -5.7959c-39.6484 -237.237 -68.8027 -476.609 -90.1924 -716.153c-1.52246 -17.0576 -27.7803 -17.542 -26.9902 0c1.25195 27.752 2.56152 55.5078 3.48535 83.2725c1.87988 56.4668 2.18555 113.087 -2.39551 169.439
c-3.43457 42.2422 -4.09766 105.66 -38.7344 136.379c-35.873 31.8145 -93.8281 10.0293 -135.968 8.04492c-18.1885 -0.857422 -39.3496 1.48145 -47.9766 20.0742z" />
    <glyph glyph-name="E" unicode="E" horiz-adv-x="424" 
d="M-96.8037 -236.041c-2.92188 37.7588 27.3701 79.1152 49.127 107.23c50.7451 65.5977 115.785 122.084 181.631 172.007c10.8389 8.2168 21.833 16.2139 32.9453 24.0381c-17.5127 -1.3252 -34.9902 -0.952148 -52.1689 1.49805
c-36.0166 5.13574 -69.0127 21.8936 -89.9883 52.3154c-19.9629 28.957 -25.583 66.1777 -23.4482 100.652c5.19336 83.8428 48.6494 162.436 96.2852 229.515c24.6748 34.7451 51.917 67.8818 82.8008 97.3037c15.1904 14.4736 31.292 27.9502 48.1484 40.4453
c14.0498 10.415 28.7881 21.6768 46.1572 25.7002c15.2354 3.52637 32.3496 0.37207 40.9639 -13.9355c9.1084 -15.127 3.50781 -34.8574 0.892578 -50.9561c-7.65918 -47.1357 -19.2148 -93.542 -34.418 -138.804c-5.8584 -17.4424 -33.4609 -10.0029 -27.6973 7.63379
c13.5977 41.6113 24.5439 84 32.0654 127.141c1.59277 9.14062 7.01855 25.4268 4.94434 34.7266c-1.91797 8.5957 -7.15918 7.12695 -14.8691 4.31348c-17.2002 -6.27344 -33.209 -20.6768 -47.1855 -32.1299c-54.9473 -45.0234 -99.8848 -101.997 -136.669 -162.487
c-35.1084 -57.7344 -67.4131 -127.572 -61.5957 -196.897c2.5166 -30.0078 14.3584 -59.9072 39.7598 -77.6396c26.0098 -18.1592 59.4492 -21.0869 90.2119 -18.7607c25.3408 1.91504 50.5098 7.34375 74.9326 15.4551c37.4248 22.5654 76.0986 43.0605 115.82 61.3926
c17.2041 7.93945 29.5752 -13.916 14.668 -25.0918c-35.3887 -26.5293 -77.8213 -50.1943 -122.615 -65.2383c-33.6436 -20.5107 -66.2676 -42.7002 -97.6582 -66.5781c-59.4932 -45.2529 -117.133 -96.5049 -164.845 -154.236
c-13.0977 -15.8496 -25.0156 -32.7129 -34.835 -50.8027c-7.38184 -13.6006 -22.6709 -38.8965 -13.2754 -54.4404c9.44922 -15.6367 35.8223 -14.6426 51.2705 -13.4131c20.7939 1.65625 41.126 7.45801 60.8184 14.1035c79.0322 26.6758 153.713 65.4326 226.708 105.384
c74.1426 40.5791 146.784 83.958 218.024 129.434c11.8574 7.57324 22.4922 -11.0518 10.9531 -18.7393c-87.1084 -58.041 -177.075 -111.87 -269.664 -160.72c-40.1455 -21.1826 -80.957 -41.1045 -122.839 -58.627c-41.21 -17.2422 -84.8086 -35.5615 -129.972 -37.7822
c-31.7471 -1.56445 -72.4502 9.07617 -75.3848 46.9912z" />
    <glyph glyph-name="E" unicode="&#xcb;" horiz-adv-x="424" 
d="M-96.8037 -236.041c-2.92188 37.7588 27.3701 79.1152 49.127 107.23c50.7451 65.5977 115.785 122.084 181.631 172.007c10.8389 8.2168 21.833 16.2139 32.9453 24.0381c-17.5127 -1.3252 -34.9902 -0.952148 -52.1689 1.49805
c-36.0166 5.13574 -69.0127 21.8936 -89.9883 52.3154c-19.9629 28.957 -25.583 66.1777 -23.4482 100.652c5.19336 83.8428 48.6494 162.436 96.2852 229.515c24.6748 34.7451 51.917 67.8818 82.8008 97.3037c15.1904 14.4736 31.292 27.9502 48.1484 40.4453
c14.0498 10.415 28.7881 21.6768 46.1572 25.7002c15.2354 3.52637 32.3496 0.37207 40.9639 -13.9355c9.1084 -15.127 3.50781 -34.8574 0.892578 -50.9561c-7.65918 -47.1357 -19.2148 -93.542 -34.418 -138.804c-5.8584 -17.4424 -33.4609 -10.0029 -27.6973 7.63379
c13.5977 41.6113 24.5439 84 32.0654 127.141c1.59277 9.14062 7.01855 25.4268 4.94434 34.7266c-1.91797 8.5957 -7.15918 7.12695 -14.8691 4.31348c-17.2002 -6.27344 -33.209 -20.6768 -47.1855 -32.1299c-54.9473 -45.0234 -99.8848 -101.997 -136.669 -162.487
c-35.1084 -57.7344 -67.4131 -127.572 -61.5957 -196.897c2.5166 -30.0078 14.3584 -59.9072 39.7598 -77.6396c26.0098 -18.1592 59.4492 -21.0869 90.2119 -18.7607c25.3408 1.91504 50.5098 7.34375 74.9326 15.4551c37.4248 22.5654 76.0986 43.0605 115.82 61.3926
c17.2041 7.93945 29.5752 -13.916 14.668 -25.0918c-35.3887 -26.5293 -77.8213 -50.1943 -122.615 -65.2383c-33.6436 -20.5107 -66.2676 -42.7002 -97.6582 -66.5781c-59.4932 -45.2529 -117.133 -96.5049 -164.845 -154.236
c-13.0977 -15.8496 -25.0156 -32.7129 -34.835 -50.8027c-7.38184 -13.6006 -22.6709 -38.8965 -13.2754 -54.4404c9.44922 -15.6367 35.8223 -14.6426 51.2705 -13.4131c20.7939 1.65625 41.126 7.45801 60.8184 14.1035c79.0322 26.6758 153.713 65.4326 226.708 105.384
c74.1426 40.5791 146.784 83.958 218.024 129.434c11.8574 7.57324 22.4922 -11.0518 10.9531 -18.7393c-87.1084 -58.041 -177.075 -111.87 -269.664 -160.72c-40.1455 -21.1826 -80.957 -41.1045 -122.839 -58.627c-41.21 -17.2422 -84.8086 -35.5615 -129.972 -37.7822
c-31.7471 -1.56445 -72.4502 9.07617 -75.3848 46.9912z" />
    <glyph glyph-name="E" unicode="&#xca;" horiz-adv-x="424" 
d="M-96.8037 -236.041c-2.92188 37.7588 27.3701 79.1152 49.127 107.23c50.7451 65.5977 115.785 122.084 181.631 172.007c10.8389 8.2168 21.833 16.2139 32.9453 24.0381c-17.5127 -1.3252 -34.9902 -0.952148 -52.1689 1.49805
c-36.0166 5.13574 -69.0127 21.8936 -89.9883 52.3154c-19.9629 28.957 -25.583 66.1777 -23.4482 100.652c5.19336 83.8428 48.6494 162.436 96.2852 229.515c24.6748 34.7451 51.917 67.8818 82.8008 97.3037c15.1904 14.4736 31.292 27.9502 48.1484 40.4453
c14.0498 10.415 28.7881 21.6768 46.1572 25.7002c15.2354 3.52637 32.3496 0.37207 40.9639 -13.9355c9.1084 -15.127 3.50781 -34.8574 0.892578 -50.9561c-7.65918 -47.1357 -19.2148 -93.542 -34.418 -138.804c-5.8584 -17.4424 -33.4609 -10.0029 -27.6973 7.63379
c13.5977 41.6113 24.5439 84 32.0654 127.141c1.59277 9.14062 7.01855 25.4268 4.94434 34.7266c-1.91797 8.5957 -7.15918 7.12695 -14.8691 4.31348c-17.2002 -6.27344 -33.209 -20.6768 -47.1855 -32.1299c-54.9473 -45.0234 -99.8848 -101.997 -136.669 -162.487
c-35.1084 -57.7344 -67.4131 -127.572 -61.5957 -196.897c2.5166 -30.0078 14.3584 -59.9072 39.7598 -77.6396c26.0098 -18.1592 59.4492 -21.0869 90.2119 -18.7607c25.3408 1.91504 50.5098 7.34375 74.9326 15.4551c37.4248 22.5654 76.0986 43.0605 115.82 61.3926
c17.2041 7.93945 29.5752 -13.916 14.668 -25.0918c-35.3887 -26.5293 -77.8213 -50.1943 -122.615 -65.2383c-33.6436 -20.5107 -66.2676 -42.7002 -97.6582 -66.5781c-59.4932 -45.2529 -117.133 -96.5049 -164.845 -154.236
c-13.0977 -15.8496 -25.0156 -32.7129 -34.835 -50.8027c-7.38184 -13.6006 -22.6709 -38.8965 -13.2754 -54.4404c9.44922 -15.6367 35.8223 -14.6426 51.2705 -13.4131c20.7939 1.65625 41.126 7.45801 60.8184 14.1035c79.0322 26.6758 153.713 65.4326 226.708 105.384
c74.1426 40.5791 146.784 83.958 218.024 129.434c11.8574 7.57324 22.4922 -11.0518 10.9531 -18.7393c-87.1084 -58.041 -177.075 -111.87 -269.664 -160.72c-40.1455 -21.1826 -80.957 -41.1045 -122.839 -58.627c-41.21 -17.2422 -84.8086 -35.5615 -129.972 -37.7822
c-31.7471 -1.56445 -72.4502 9.07617 -75.3848 46.9912z" />
    <glyph glyph-name="E" unicode="&#xc9;" horiz-adv-x="424" 
d="M-96.8037 -236.041c-2.92188 37.7588 27.3701 79.1152 49.127 107.23c50.7451 65.5977 115.785 122.084 181.631 172.007c10.8389 8.2168 21.833 16.2139 32.9453 24.0381c-17.5127 -1.3252 -34.9902 -0.952148 -52.1689 1.49805
c-36.0166 5.13574 -69.0127 21.8936 -89.9883 52.3154c-19.9629 28.957 -25.583 66.1777 -23.4482 100.652c5.19336 83.8428 48.6494 162.436 96.2852 229.515c24.6748 34.7451 51.917 67.8818 82.8008 97.3037c15.1904 14.4736 31.292 27.9502 48.1484 40.4453
c14.0498 10.415 28.7881 21.6768 46.1572 25.7002c15.2354 3.52637 32.3496 0.37207 40.9639 -13.9355c9.1084 -15.127 3.50781 -34.8574 0.892578 -50.9561c-7.65918 -47.1357 -19.2148 -93.542 -34.418 -138.804c-5.8584 -17.4424 -33.4609 -10.0029 -27.6973 7.63379
c13.5977 41.6113 24.5439 84 32.0654 127.141c1.59277 9.14062 7.01855 25.4268 4.94434 34.7266c-1.91797 8.5957 -7.15918 7.12695 -14.8691 4.31348c-17.2002 -6.27344 -33.209 -20.6768 -47.1855 -32.1299c-54.9473 -45.0234 -99.8848 -101.997 -136.669 -162.487
c-35.1084 -57.7344 -67.4131 -127.572 -61.5957 -196.897c2.5166 -30.0078 14.3584 -59.9072 39.7598 -77.6396c26.0098 -18.1592 59.4492 -21.0869 90.2119 -18.7607c25.3408 1.91504 50.5098 7.34375 74.9326 15.4551c37.4248 22.5654 76.0986 43.0605 115.82 61.3926
c17.2041 7.93945 29.5752 -13.916 14.668 -25.0918c-35.3887 -26.5293 -77.8213 -50.1943 -122.615 -65.2383c-33.6436 -20.5107 -66.2676 -42.7002 -97.6582 -66.5781c-59.4932 -45.2529 -117.133 -96.5049 -164.845 -154.236
c-13.0977 -15.8496 -25.0156 -32.7129 -34.835 -50.8027c-7.38184 -13.6006 -22.6709 -38.8965 -13.2754 -54.4404c9.44922 -15.6367 35.8223 -14.6426 51.2705 -13.4131c20.7939 1.65625 41.126 7.45801 60.8184 14.1035c79.0322 26.6758 153.713 65.4326 226.708 105.384
c74.1426 40.5791 146.784 83.958 218.024 129.434c11.8574 7.57324 22.4922 -11.0518 10.9531 -18.7393c-87.1084 -58.041 -177.075 -111.87 -269.664 -160.72c-40.1455 -21.1826 -80.957 -41.1045 -122.839 -58.627c-41.21 -17.2422 -84.8086 -35.5615 -129.972 -37.7822
c-31.7471 -1.56445 -72.4502 9.07617 -75.3848 46.9912z" />
    <glyph glyph-name="F" unicode="F" horiz-adv-x="482" 
d="M319.312 629.777c2.09961 18.7041 31.6123 18.9248 29.5703 0.000976562c-0.736328 -6.83398 -1.39941 -13.6709 -2.11035 -20.5078c18.7939 12.2432 37.833 24.1104 57.127 35.541c46.0234 27.2617 93.4834 54.3135 143.961 72.4697
c20.8291 7.49023 50.2061 19.7627 71.9531 9.26855c16.3691 -7.90137 24.6465 -28.7246 13.9639 -44.4531c-10.1221 -14.9072 -34.418 -0.956055 -24.3281 14.2188c6.56934 9.88281 -35.1025 -0.0957031 -37.3291 -0.771484
c-13.833 -4.20898 -27.4209 -9.29004 -40.668 -15.0791c-25.627 -11.2051 -50.3594 -24.4648 -74.8047 -38.0205c-38.8076 -21.5176 -76.6846 -44.7109 -113.532 -69.4365c-4.58105 -47.5723 -8.48047 -95.2109 -11.4629 -142.917
c-7.29297 -116.696 -9.80664 -233.711 -7.34668 -350.607c0.140625 -6.62012 0.363281 -13.2344 0.541992 -19.8516c22.1328 7.7002 44.418 14.9541 66.5469 22.167c15.9424 5.19629 22.8115 -20.0264 6.90723 -25.0566
c-24.3652 -7.70703 -48.5146 -16.127 -72.667 -24.5186c0.930664 -27.2295 2.1377 -54.4375 3.57812 -81.626c6.68066 -61.873 9.87012 -124.237 13.0469 -186.11c0.0634766 -1.19434 -0.0546875 -2.27148 -0.251953 -3.28418
c0.822266 -10.5518 1.64062 -21.1006 2.47852 -31.6523c1.03906 -13.1162 -21.2305 -16.0762 -22.9795 -3.10938c-8.7998 65.2539 -14.4863 130.896 -18.8164 196.59c-0.961914 14.6074 -1.83789 29.2207 -2.6377 43.8379
c-2.16992 17.6758 -4.34863 35.8643 -7.05664 54.123c-13.8428 -4.69922 -27.7178 -9.28711 -41.6748 -13.6045c-11.7842 -3.64453 -19.873 14.9453 -8.47754 20.1094c15.0625 6.82422 30.4277 13.0752 45.9434 19.0039c-5.82715 31.9414 -14.0469 63.415 -27.5771 91.9189
c-21.4541 45.1885 -57.3945 71.9854 -106.944 79.6025c-25.4424 3.91211 -51.4043 3.65039 -77.0703 4.43457c-21.3359 0.650391 -48.5469 -1.16211 -68.1592 8.6123c-75.9521 37.8545 110.729 199.829 140.1 226.281c52.2705 47.0811 107.683 90.7402 165.707 130.567
c1.4209 13.9639 2.90527 27.918 4.46973 41.8594zM159.12 245.18c41.2578 -6.23438 78.4277 -24.3652 104.281 -57.7314c13.6006 -17.5508 23.5625 -37.4053 31.1924 -58.2031c-1.87012 140.759 3.74316 281.684 16.6973 421.793
c-76.7197 -54.2812 -148.488 -115.508 -214.182 -182.718c-16.9326 -17.3252 -33.8271 -34.9844 -48.3291 -54.4346c-7.01855 -9.41113 -13.5205 -19.2334 -19.2588 -29.4795c-4.91602 -8.77734 -16.5791 -24.3887 -3.81348 -29.7822
c9.30566 -3.93164 23.0938 -2.94727 33.0625 -3.49219c11.4121 -0.621094 22.8428 -0.895508 34.2676 -1.21777c22.0977 -0.618164 44.1885 -1.42773 66.082 -4.73438z" />
    <glyph glyph-name="G" unicode="G" horiz-adv-x="474" 
d="M353.493 558.828c32.6777 11.4688 72.3105 18.0312 97.5615 -11.4219c25.4043 -29.6191 19.915 -69.7041 12.8555 -104.953c-2.79688 -13.9795 -22.9414 -7.71289 -20.9756 5.78223c3.60938 24.7578 8.43945 54.1162 -6.34277 76.3857
c-14.4033 21.7021 -38.7754 19.3477 -61.1533 13.0488c-42.9873 -12.0967 -81.0146 -37.4023 -114.205 -66.7031c-68.0127 -60.0479 -124.419 -134.734 -168.479 -213.776c-20.1094 -36.0742 -38.623 -73.7031 -52.0518 -112.813
c-6.4707 -18.8418 -38.0273 -112.001 8.83398 -99.6465c19.0195 5.01465 35.7168 23.0947 50.0752 35.5996c15.0566 13.1104 29.5967 26.8037 43.752 40.8789c28.3926 28.2334 55.1924 58.0156 81.6543 88.0488c26.5352 30.1133 52.7363 60.5293 79.915 90.0693
c14.7988 16.082 29.8838 31.9092 45.4561 47.2461c11.415 11.2432 23.4033 25.9844 38.6992 31.8115c15.9131 6.05957 31.8809 0.0253906 38.8164 -15.5254c6.54102 -14.6611 3.61328 -32.3555 2.9668 -47.8066c-1.97559 -47.2373 -4.03027 -94.4746 -6.11035 -141.709
c-4.0459 -91.8076 -6.74707 -183.87 -15.9316 -275.347c-4.18652 -41.7129 -8.73633 -84.1074 -20.7246 -124.422c-8.03125 -27.0137 -21.5869 -73.3721 -56.1602 -75.7715c-35.1943 -2.44043 -54.5742 40.0215 -60.5576 68.4775
c-7.375 35.0645 -5.72461 72.2529 0.449219 107.346c12.8262 72.9033 51.1777 141.034 107.399 189.186c4.0752 3.48828 8.69434 4.20215 12.8301 3.18945c1.27734 27.3926 2.42383 54.7812 3.67285 82.1514c2.05762 45.1348 4.09961 90.2725 6.07812 135.41
c0.598633 13.6484 1.19141 27.2939 1.77734 40.9424c0.277344 6.48633 3.08691 18.1494 0.0605469 24.1553c-3.59375 7.13281 -9.21094 1.56055 -14.0596 -2.68262c-2.72363 -2.38281 -5.33301 -4.99805 -7.94824 -7.48926
c-7.24805 -6.9043 -14.3809 -13.9326 -21.4277 -21.0439c-55.8486 -56.3682 -105.711 -118.229 -159.629 -176.378c-27.1562 -29.291 -55.374 -57.665 -85.6973 -83.6934c-24.4395 -20.9795 -56.8467 -52.2393 -91.8975 -37.2686
c-34.3857 14.6865 -26.8193 58.5625 -20.8457 87.8027c8.14648 39.8838 24.3369 77.8887 41.8467 114.463c34.3916 71.8418 78.6758 138.88 130.816 199.074c49.082 56.6582 106.584 112.08 178.681 137.383zM377.767 -126.875
c6.32715 53.6631 9.97168 107.582 12.7598 161.545c-58.3721 -55.6357 -93.9395 -133.343 -94.7969 -214.456c-0.216797 -20.3389 0.929688 -41.4736 7.49219 -60.8945c5.59766 -16.5605 22.0752 -45.9824 38.5176 -23.1328
c12.8711 17.8887 18.8574 43.1621 23.9072 64.2178c5.73828 23.9258 9.24316 48.3076 12.1201 72.7207z" />
    <glyph glyph-name="H" unicode="H" horiz-adv-x="485" 
d="M-55.6934 -73.4775c48.8936 100.381 117.515 189.747 196.309 268.716c5.6582 154.118 -4.54004 308.335 -24.248 461.255c-1.65332 12.8164 20.6035 15.665 22.4893 3.0459c21.5908 -144.426 32.6934 -290.92 29.7461 -437.061
c20.2881 19.1631 41.1396 37.6855 62.418 55.5615c51.127 42.9521 104.914 83.5059 161.101 119.848c1.49414 24.5381 3.17969 49.0693 5.17383 73.5723c2.37988 29.25 5.1709 58.4551 8.34766 87.6279c2.65039 24.3398 3.56152 49.5566 15.3242 71.5586
c6.98047 13.0557 25.5703 1.57715 19.5586 -11.4307c-11.5488 -25 -10.1123 -58.0986 -12.4727 -85.1465c-2.36719 -27.1152 -4.54297 -54.2529 -6.40625 -81.4092c-0.860352 -12.543 -1.63477 -25.0918 -2.37402 -37.6445c1.10547 0.675781 2.19141 1.38574 3.2998 2.06152
c36.1221 22.0049 73.6396 41.6143 112.854 57.5215c32.3174 13.1104 75.4639 33.4463 108.533 12.4795c14.9639 -9.4873 1.11816 -33.3369 -13.9189 -23.8115c-18.4746 11.7021 -42.4521 1.15332 -61.1211 -5.39355c-20.877 -7.32129 -41.2412 -15.9453 -61.1533 -25.5732
c-31.1582 -15.0664 -61.1406 -32.4229 -90.3047 -51.041c-1.63477 -32.665 -2.89648 -65.3496 -3.68652 -98.0469c-2.72754 -113.1 -0.112305 -226.275 7.13574 -339.168c1.16309 -18.1055 -26.9717 -17.9746 -28.125 0c-7.51855 117.078 -9.29004 234.469 -5.48926 351.729
c0.729492 22.5342 1.73926 45.0557 2.89258 67.5674c-65.3145 -43.9688 -127.828 -92.3652 -185.891 -145.557c-12.4951 -11.4434 -24.7861 -23.1357 -36.8516 -35.0703c-1.79688 -47.4062 -5.08789 -94.7549 -10.0391 -141.954
c-9.29297 -88.6152 -23.3398 -177.473 -46.0166 -263.712c-10.7588 -40.9072 -24.2861 -81.2441 -42.9072 -119.293c-15.917 -32.5244 -35.8516 -69.1846 -67.5381 -88.9121c-31.3975 -19.5488 -66.6465 -10.5869 -87.7656 18.8604
c-21.9893 30.6543 -29.9893 71.9336 -31.0566 108.932c-2.30371 79.8613 27.7236 159.143 62.1826 229.889zM109.091 -100.396c15.2412 82.8301 24.6562 166.581 29.4668 250.65c0.0576172 1.03223 0.0957031 2.06152 0.15332 3.09375
c-74.875 -79.1348 -139.011 -168.436 -183.071 -268.482c-29.9375 -67.9775 -56.2812 -147.131 -41.7412 -222.104c5.23145 -26.9717 20.7754 -84.5469 59.0059 -75.4512c34.9814 8.3252 56.6963 55.8623 70.918 84.8633c34.7354 70.8252 51.085 150.345 65.2686 227.431z
" />
    <glyph glyph-name="I" unicode="I" horiz-adv-x="229" 
d="M5.31055 544.437c-12.9795 -6.00879 -22.7324 10.752 -11.1611 19.0732c32.9678 23.7227 72.2178 40.9619 109.61 56.8184c0.363281 8.27734 0.688477 16.5576 1.09668 24.835c0.949219 19.2783 1.10547 42.4941 22.8584 49.3691
c11.6035 3.66699 19.5078 -14.6582 8.34473 -19.7871c-11.4434 -5.25684 -7.96094 -33.2578 -8.06641 -44.459c32.1143 12.7178 64.8623 23.6777 98.1836 32.8975c16.0439 4.4375 22.8428 -20.4951 6.85645 -24.8662c-35.9082 -9.81543 -71.2812 -21.5527 -105.836 -35.4053
c-0.207031 -6.9707 -0.420898 -13.9443 -0.625 -20.915c-0.987305 -33.6943 -1.77441 -67.3945 -2.36035 -101.102c-3.21777 -184.922 -0.446289 -369.755 7.94531 -554.432c28.2236 11.6094 56.46 23.1738 84.6582 34.8057
c15.5918 6.43262 22.3203 -18.9111 6.96094 -25.248c-30.1162 -12.4248 -60.207 -24.9453 -90.3232 -37.3994c2.02637 -41.7861 4.33008 -83.5664 6.92969 -125.337c1.11816 -17.9775 -26.8154 -17.8535 -27.9277 0c-2.36719 38.0303 -4.40625 76.083 -6.19629 114.145
c-31.3711 -12.8867 -62.79 -25.6523 -94.3555 -38.0137c-13.0527 -5.11035 -22.2021 17.0605 -9.5127 22.5654c34.0576 14.7734 68.3125 29.1104 102.631 43.3037c-1.05469 24.2129 -2.04199 48.4287 -2.89551 72.6514c-4.40918 125.285 -6.04395 250.673 -4.90332 376.035
c0.563477 62.1631 1.83789 124.313 3.85449 186.441c0.456055 14.0342 0.962891 28.0684 1.50488 42.0986c-33.0215 -14.9385 -64.3926 -32.8594 -97.2715 -48.0752z" />
    <glyph glyph-name="I" unicode="&#xcf;" horiz-adv-x="229" 
d="M5.31055 544.437c-12.9795 -6.00879 -22.7324 10.752 -11.1611 19.0732c32.9678 23.7227 72.2178 40.9619 109.61 56.8184c0.363281 8.27734 0.688477 16.5576 1.09668 24.835c0.949219 19.2783 1.10547 42.4941 22.8584 49.3691
c11.6035 3.66699 19.5078 -14.6582 8.34473 -19.7871c-11.4434 -5.25684 -7.96094 -33.2578 -8.06641 -44.459c32.1143 12.7178 64.8623 23.6777 98.1836 32.8975c16.0439 4.4375 22.8428 -20.4951 6.85645 -24.8662c-35.9082 -9.81543 -71.2812 -21.5527 -105.836 -35.4053
c-0.207031 -6.9707 -0.420898 -13.9443 -0.625 -20.915c-0.987305 -33.6943 -1.77441 -67.3945 -2.36035 -101.102c-3.21777 -184.922 -0.446289 -369.755 7.94531 -554.432c28.2236 11.6094 56.46 23.1738 84.6582 34.8057
c15.5918 6.43262 22.3203 -18.9111 6.96094 -25.248c-30.1162 -12.4248 -60.207 -24.9453 -90.3232 -37.3994c2.02637 -41.7861 4.33008 -83.5664 6.92969 -125.337c1.11816 -17.9775 -26.8154 -17.8535 -27.9277 0c-2.36719 38.0303 -4.40625 76.083 -6.19629 114.145
c-31.3711 -12.8867 -62.79 -25.6523 -94.3555 -38.0137c-13.0527 -5.11035 -22.2021 17.0605 -9.5127 22.5654c34.0576 14.7734 68.3125 29.1104 102.631 43.3037c-1.05469 24.2129 -2.04199 48.4287 -2.89551 72.6514c-4.40918 125.285 -6.04395 250.673 -4.90332 376.035
c0.563477 62.1631 1.83789 124.313 3.85449 186.441c0.456055 14.0342 0.962891 28.0684 1.50488 42.0986c-33.0215 -14.9385 -64.3926 -32.8594 -97.2715 -48.0752z" />
    <glyph glyph-name="I" unicode="&#xce;" horiz-adv-x="229" 
d="M5.31055 544.437c-12.9795 -6.00879 -22.7324 10.752 -11.1611 19.0732c32.9678 23.7227 72.2178 40.9619 109.61 56.8184c0.363281 8.27734 0.688477 16.5576 1.09668 24.835c0.949219 19.2783 1.10547 42.4941 22.8584 49.3691
c11.6035 3.66699 19.5078 -14.6582 8.34473 -19.7871c-11.4434 -5.25684 -7.96094 -33.2578 -8.06641 -44.459c32.1143 12.7178 64.8623 23.6777 98.1836 32.8975c16.0439 4.4375 22.8428 -20.4951 6.85645 -24.8662c-35.9082 -9.81543 -71.2812 -21.5527 -105.836 -35.4053
c-0.207031 -6.9707 -0.420898 -13.9443 -0.625 -20.915c-0.987305 -33.6943 -1.77441 -67.3945 -2.36035 -101.102c-3.21777 -184.922 -0.446289 -369.755 7.94531 -554.432c28.2236 11.6094 56.46 23.1738 84.6582 34.8057
c15.5918 6.43262 22.3203 -18.9111 6.96094 -25.248c-30.1162 -12.4248 -60.207 -24.9453 -90.3232 -37.3994c2.02637 -41.7861 4.33008 -83.5664 6.92969 -125.337c1.11816 -17.9775 -26.8154 -17.8535 -27.9277 0c-2.36719 38.0303 -4.40625 76.083 -6.19629 114.145
c-31.3711 -12.8867 -62.79 -25.6523 -94.3555 -38.0137c-13.0527 -5.11035 -22.2021 17.0605 -9.5127 22.5654c34.0576 14.7734 68.3125 29.1104 102.631 43.3037c-1.05469 24.2129 -2.04199 48.4287 -2.89551 72.6514c-4.40918 125.285 -6.04395 250.673 -4.90332 376.035
c0.563477 62.1631 1.83789 124.313 3.85449 186.441c0.456055 14.0342 0.962891 28.0684 1.50488 42.0986c-33.0215 -14.9385 -64.3926 -32.8594 -97.2715 -48.0752z" />
    <glyph glyph-name="I" unicode="&#xcd;" horiz-adv-x="229" 
d="M5.31055 544.437c-12.9795 -6.00879 -22.7324 10.752 -11.1611 19.0732c32.9678 23.7227 72.2178 40.9619 109.61 56.8184c0.363281 8.27734 0.688477 16.5576 1.09668 24.835c0.949219 19.2783 1.10547 42.4941 22.8584 49.3691
c11.6035 3.66699 19.5078 -14.6582 8.34473 -19.7871c-11.4434 -5.25684 -7.96094 -33.2578 -8.06641 -44.459c32.1143 12.7178 64.8623 23.6777 98.1836 32.8975c16.0439 4.4375 22.8428 -20.4951 6.85645 -24.8662c-35.9082 -9.81543 -71.2812 -21.5527 -105.836 -35.4053
c-0.207031 -6.9707 -0.420898 -13.9443 -0.625 -20.915c-0.987305 -33.6943 -1.77441 -67.3945 -2.36035 -101.102c-3.21777 -184.922 -0.446289 -369.755 7.94531 -554.432c28.2236 11.6094 56.46 23.1738 84.6582 34.8057
c15.5918 6.43262 22.3203 -18.9111 6.96094 -25.248c-30.1162 -12.4248 -60.207 -24.9453 -90.3232 -37.3994c2.02637 -41.7861 4.33008 -83.5664 6.92969 -125.337c1.11816 -17.9775 -26.8154 -17.8535 -27.9277 0c-2.36719 38.0303 -4.40625 76.083 -6.19629 114.145
c-31.3711 -12.8867 -62.79 -25.6523 -94.3555 -38.0137c-13.0527 -5.11035 -22.2021 17.0605 -9.5127 22.5654c34.0576 14.7734 68.3125 29.1104 102.631 43.3037c-1.05469 24.2129 -2.04199 48.4287 -2.89551 72.6514c-4.40918 125.285 -6.04395 250.673 -4.90332 376.035
c0.563477 62.1631 1.83789 124.313 3.85449 186.441c0.456055 14.0342 0.962891 28.0684 1.50488 42.0986c-33.0215 -14.9385 -64.3926 -32.8594 -97.2715 -48.0752z" />
    <glyph glyph-name="J" unicode="J" horiz-adv-x="496" 
d="M496.729 648.842c18.1309 0.322266 18.0791 -27.8682 0.00585938 -28.123c-27.2461 -0.378906 -52.1377 -11.1885 -76.6846 -22.0137c-22.3525 -9.85742 -44.46 -20.2686 -66.2988 -31.209c-9.20996 -4.61328 -18.3633 -9.33789 -27.4746 -14.1387
c4.98242 -87.4463 7.71582 -175.008 8.04395 -262.617c0.420898 -112.061 -2.57031 -224.287 -10.041 -336.108c-3.67676 -54.9697 -9.21094 -110.009 -20.3232 -164.029c-7.88867 -38.3486 -21.7979 -102.328 -66.2256 -114.622
c-45.6758 -12.6357 -75.6904 31.8867 -89.1123 68.5625c-16.8662 46.0938 -16.6494 96.9307 -11.6191 145.117c10.6221 101.732 41.4707 200.689 90.4727 290.462c8.73535 16.0059 33.0244 1.74902 24.4131 -14.2695c-50.0791 -93.1621 -82.7373 -197.762 -88.6406 -303.715
c-2.44336 -43.8447 0.322266 -91.3467 22.1777 -130.54c9.79004 -17.5605 30.7568 -39.0625 52.1504 -24.6523c18.0674 12.1729 26.418 40.626 32.0283 60.3018c27.1816 95.3252 28.9531 198.522 33.2061 296.922c6.85254 158.482 6.16797 317.255 -1.58301 475.687
c-23.8115 -13.1191 -47.2822 -26.8535 -70.3701 -41.2031c-40.6807 -25.2861 -80.1123 -52.5508 -118.241 -81.542c-27.6221 -21.001 -55.5371 -42.375 -80.0557 -67.0244c9.63379 0.0507812 15.9961 -14.2285 5.66406 -19.998
c-12.2275 -6.83105 -24.8408 -9.98145 -38.7373 -11.2842c-8.88184 -0.831055 -14.2598 10.4121 -10 17.4238c25.0693 41.2734 69.9492 72.0205 107.473 101.168c39.4639 30.6543 80.4092 59.3594 122.718 85.9551c26.1592 16.4424 52.8477 32.0371 79.9854 46.8037
c-1.89844 34.7549 -4.1123 69.4873 -6.68652 104.194c-1.19434 16.0986 23.6973 15.8945 24.9912 0c2.46289 -30.3076 4.63281 -60.6338 6.54395 -90.9766c10.1025 5.25684 20.2529 10.415 30.4736 15.4355c43.6885 21.4727 91.9736 49.1553 141.747 50.0342z" />
    <glyph glyph-name="K" unicode="K" horiz-adv-x="515" 
d="M123.48 698.07c-3.45312 14.0781 17.8389 19.9473 21.7031 5.9834c25.2031 -91.1289 34.6621 -185.533 36.9492 -279.833c0.961914 -39.7061 0.860352 -79.4951 -0.0986328 -119.274c47.2275 60.6211 97.6602 118.731 151.151 173.908
c53.4561 55.1416 109.4 113.883 174.829 154.889c10.5674 6.62305 23.5439 -4.33301 20.5488 -15.7959c-3.32324 -12.7148 -9.90234 -23.4541 -20.1104 -31.8105c-6.35938 -5.20605 -14.0283 -3.79199 -18.998 0.365234
c-22.3838 -17.4111 -43.2803 -36.7461 -63.9795 -56.1455c-29.54 -27.6885 -58.2861 -56.2246 -86.1943 -85.5576c-53.9473 -56.6992 -104.807 -116.387 -152.089 -178.76c1.9502 -0.837891 3.60059 -2.29102 4.5498 -4.53418
c9.13379 -21.6104 13.7949 -45.5713 20.084 -68.1621c6.64941 -23.8906 13.4131 -47.7432 20.5879 -71.4814c13.502 -44.6562 27.1406 -90.208 48.4385 -131.88c18.3027 -35.8125 43.707 -72.5234 83.1006 -86.8281c38.0742 -13.8301 80.1406 -6.35938 113.325 15.9004
c15.2061 10.1982 29.1445 -14.1992 14.2695 -24.416c-35.6729 -24.4961 -81.3486 -33.0596 -123.399 -22.1865c-42.8057 11.0713 -74.7539 42.9395 -97.2939 79.7012c-27.2744 44.4844 -43.0352 95.3984 -57.9863 145.038
c-7.74512 25.7197 -14.9932 51.5859 -21.9922 77.5156c-3.88965 14.4102 -8.43262 29.0908 -12.3096 43.8672c-1.55176 -27.8125 -3.46289 -55.5938 -5.79492 -83.3047c-7.19336 -85.5098 -18.459 -170.765 -34.9941 -254.98
c-14.3877 -73.2822 -31.1738 -155.255 -76.4775 -216.605c-20.0713 -27.1787 -50.9043 -48.75 -86.1943 -43.9619c-29.6865 4.03027 -50.2422 27.1221 -60.832 53.8291c-28.0771 70.8125 2.125 157.16 27.2295 224.421c49.6201 132.938 126.267 255.302 211.285 368.745
c6.73145 144.248 5.23047 290.602 -29.3076 431.354zM127.027 -11.4053c11.3066 75.3174 18.5264 151.219 23.0469 227.24c-74.7695 -103.946 -142.278 -215.552 -185.39 -336.029c-13.0244 -36.3955 -25.1309 -74.0781 -30.1553 -112.52
c-4.17676 -31.958 -5.04688 -69.7305 13.5273 -97.7949c20.4912 -30.9639 57.25 -24.1973 80.4404 0.242188c24.0537 25.3467 38.1572 61.9941 49.458 94.4492c25.0889 72.0557 37.7754 149.174 49.0723 224.412z" />
    <glyph glyph-name="L" unicode="L" horiz-adv-x="82" 
d="M-0.389648 -270.222c34.8506 26.9619 71.4131 51.7158 109.484 73.8965c25.1875 14.6777 51.0186 28.2754 77.417 40.6494c25.707 12.0488 53.4277 24.7188 82.082 27.1436c24.2256 2.04883 40.5664 -15.4258 30.4316 -39.1191
c-10.0957 -23.6074 -29.2305 -44.6758 -48.9102 -60.6787c-13.709 -11.1504 -33.4199 8.24219 -19.6055 19.6064c8.44238 6.94531 16.3525 14.3682 23.46 22.6895c4.96973 5.81738 16.4863 18.1152 17.8564 26.0547c1.11523 6.46387 -1.53223 3.89648 -7.92676 2.75293
c-5.5752 -0.99707 -11.0645 -2.4082 -16.5059 -3.97559c-11.6064 -3.3418 -22.8721 -7.6875 -33.9238 -12.543c-40.1484 -17.6367 -78.9268 -38.8672 -116.119 -62.0576c-38.4346 -23.9639 -75.2412 -50.5117 -109.964 -79.5986
c-1.16309 -0.97168 -2.30664 -1.96875 -3.46582 -2.9502c-17.0381 -46.5527 -41.7705 -92.041 -90.5215 -109.337c-7.51855 -2.66699 -14.5146 3.03906 -16.9619 9.63086c-9.40137 25.3311 10.2842 46.5107 26.9053 63.1572c18.5225 18.5615 37.832 36.3291 57.7754 53.3516
c10.0801 27.9082 17.835 56.9062 24.9297 85.4453c36.1406 145.366 42.7295 296.936 46.5332 446.077c3.96973 155.564 -1.50684 310.991 -22.9697 465.239c-1.8418 13.25 18.0449 19.3379 20.5459 5.66113c16.5791 -90.7314 24.834 -182.771 28.2266 -274.895
c5.89355 -160.044 2.18164 -323.021 -16.5449 -482.17c-8.50586 -72.2939 -21.3545 -144.234 -42.2285 -214.031zM-91.5566 -388.734c7.42285 5.75977 13.9004 12.6826 19.6123 20.2969c-6.75391 -5.93848 -14.3682 -12.957 -19.6123 -20.2969z" />
    <glyph glyph-name="M" unicode="M" horiz-adv-x="620" 
d="M47.1895 341.74c-2.58984 -50.6211 -4.68555 -101.277 -6.26562 -151.937c-3.1543 -100.716 -6.30176 -202.088 -2.32617 -302.816c0.943359 -23.9072 2.55859 -47.7979 5.22852 -71.5801c0.671875 -5.97363 1.39844 -11.9404 2.2334 -17.8945
c0.704102 -5.01172 3.70801 -13.5693 2.87988 -18.4951c-0.0888672 -0.529297 -0.0185547 -1.03906 0.115234 -1.5293c2.17871 4.89355 4.6123 11.6416 4.89258 12.3457c14.8848 37.332 22.2949 77.917 31.1768 116.985c18.9404 83.3242 35.9336 167.075 54.1504 250.562
c35.2549 161.569 75.5947 322.909 142.441 474.711c15.4678 35.1279 30.7441 74.3779 58.1494 102.182c10.7363 10.8926 26.835 16.0918 37.4854 1.71094c9.17188 -12.377 9.35645 -32.9512 9.94922 -47.8066c1.75195 -44.0352 -4.67383 -89.0938 -7.89844 -132.979
c-3.22461 -43.8828 -6.43262 -87.7715 -9.15332 -131.689c-5.62598 -90.7793 -9.49023 -181.759 -7.94531 -272.729c0.757812 -44.8447 2.83496 -89.6797 6.61621 -134.375c2.77832 -32.8496 3.20801 -70.6953 13.3711 -103.58
c0.643555 3.45996 1.09961 6.37207 1.37012 7.5c2.19824 9.14355 4.33008 18.3066 6.41699 27.4756c4.39355 19.3037 8.58008 38.6484 12.7373 58.0029c8.11426 37.7852 16.0059 75.627 25.0254 113.211c16.4199 68.4141 36.8096 136.197 67.7002 199.609
c8.8252 18.1182 27.4561 55.7949 52.9561 34.2744c11.2051 -9.45605 10.6025 -26.2236 11.1406 -39.4736c0.749023 -18.3281 1.03906 -36.6758 0.985352 -55.0205c-0.456055 -153.009 -25.2842 -307.646 2.72266 -459.591
c3.30078 -17.8984 -24.1299 -25.4648 -27.3604 -7.54395c-14.3145 79.4629 -15.6367 160.012 -12.667 240.497c2.6377 71.4785 8.15527 142.853 8.90723 214.398c0.194336 18.3477 0.0859375 36.7012 -0.47168 55.042c-0.209961 6.95801 -1.49023 14.9707 -1.46777 22.2471
c-1.47461 -3.1123 -3.73047 -6.32715 -5.16113 -9.14941c-15.0693 -29.7148 -27.5488 -60.6152 -38.2402 -92.1523c-21.1094 -62.2646 -35.4395 -126.598 -48.9385 -190.863c-6.78613 -32.3047 -13.3457 -64.6572 -20.5488 -96.873
c-5.11035 -22.8555 -6.72266 -60.4336 -33.8057 -68.2578c-6.18066 -1.78418 -13.7627 1.14648 -16.8594 6.8623c-22.085 40.7666 -22.8623 91.9229 -26.708 137.146c-4.41602 51.9688 -6.46484 104.112 -6.88574 156.263c-0.828125 102.554 4.89355 204.99 11.9189 307.261
c3.15723 45.9727 6.62012 91.9229 9.93945 137.883c1.56738 21.709 3.75586 43.5166 3.88965 65.292c0.0351562 5.64551 -0.0410156 11.3066 -0.445312 16.9424c-0.290039 4.02734 -2.34766 10.3223 -2.65625 15.1074c-2.80371 -3.2627 -5.53418 -6.44824 -5.66504 -6.62695
c-24.6396 -33.2705 -40.1865 -75.1553 -55.8672 -113.179c-16.1621 -39.1895 -30.6611 -79.0605 -43.8662 -119.34c-53.1689 -162.188 -85.1494 -330.187 -121.182 -496.72c-9.02246 -41.6934 -18.2646 -83.3428 -28.208 -124.826
c-4.90332 -20.457 -9.96582 -40.9395 -17.2744 -60.6982c-4.84277 -13.0908 -10.8291 -35.1465 -24.4619 -42.1719c-38.9639 -20.0742 -41.9648 53.1436 -44.0098 73.1514c-4.6582 45.5771 -5.41602 91.4443 -5.22461 137.226
c0.385742 92.8242 2.9248 185.668 7.02148 278.399c2.05176 46.4404 4.58496 92.8555 7.55469 139.245c2.74902 42.9238 5.53711 86.1855 19.791 127.105c4.54297 13.04 25.0537 7.65918 20.8799 -5.75684c-15.3271 -49.2793 -15.4707 -101.865 -18.083 -152.983z" />
    <glyph glyph-name="N" unicode="N" horiz-adv-x="449" 
d="M1.64551 193.36c-9.32812 30.4922 -3.23633 63.8809 6.1748 93.542c10.0898 31.8076 23.7129 62.752 38.8047 92.4824c30.1865 59.4746 67.9238 115.374 109.984 167.071c40.4863 49.7637 88.084 104.908 146.574 133.775
c24.0508 11.8711 55.2061 20.4639 77.3926 0.000976562c20.4346 -18.8477 21.8486 -50.8564 23.7891 -76.6777c5.60059 -74.582 -3.20508 -150.355 -7.81543 -224.804c-4.6543 -75.1621 -9.11133 -150.34 -12.1279 -225.588
c-6.02148 -150.205 -5.85547 -300.732 9.20117 -450.435c1.83203 -18.2266 -26.5762 -18.0098 -28.4238 0c-16.0889 156.908 -14.9482 314.967 -8.06055 472.372c3.06445 70.0098 7.26953 139.966 11.6182 209.909c4.31348 69.3887 11.9658 139.67 8.04688 209.222
c-1.41113 25.0508 -0.439453 77.0449 -38.5527 69.3799c-29.501 -5.93164 -56.7695 -28.8545 -78.4688 -48.4414c-48.168 -43.4873 -90.2568 -93.8535 -127.076 -147.183c-36.0166 -52.1689 -68.1523 -107.826 -90.3711 -167.352
c-10.9727 -29.3896 -22.4863 -63.0166 -14.999 -94.624c7.00586 -29.5654 32.1357 -49.0537 50.4229 -71.7021c42.2451 -52.3223 64.4385 -115.129 77.6094 -180.354c6.3623 127.655 5.40332 255.741 -1.40137 383.292
c-0.792969 14.8682 21.9736 14.6416 22.999 -0.000976562c12.0996 -172.911 9.61133 -346.001 -3.6416 -518.769c-1.37598 -17.917 -25.6465 -17.4707 -27.5293 0.000976562c-7.50879 69.6719 -14.9004 140.147 -39.0049 206.446
c-11.6123 31.9453 -27.5801 62.9219 -48.8877 89.5303c-20.3799 25.4551 -46.3867 46.6377 -56.2568 78.9043z" />
    <glyph glyph-name="O" unicode="O" horiz-adv-x="457" 
d="M383.117 519.943c47.8486 -42.2031 59.9463 -113.266 62.9629 -173.639c3.79102 -75.668 -8.23242 -152.562 -26.2139 -225.896c-17.9648 -73.2783 -44.1973 -144.572 -77.8662 -212.094c-15.209 -30.502 -32.2627 -60.2139 -54.4395 -86.249
c-19.3164 -22.6738 -46.0332 -47.7881 -78.0576 -46.6602c-30.4727 1.07324 -48.2754 27.5957 -57.2471 53.7236c-11.8994 34.6562 -15.5762 72.8008 -15.9326 109.247c-0.729492 74.4707 11.6729 149.843 27.6816 222.366c16.7832 76.0312 39.3135 150.916 65.3486 224.265
c6.11035 17.2168 33.499 9.95898 27.6016 -7.6084c-46.4023 -138.211 -90.6357 -283.004 -91.7383 -430.145c-0.242188 -32.3213 2.8291 -171.525 65.4736 -137.723c26.4814 14.2891 46.2275 42.3916 61.7969 67.3438c16.4268 26.3281 30.1104 54.4209 42.873 82.6738
c52.8477 116.979 89.1191 251.434 84.7832 380.562c-1.8252 54.3291 -10.4209 119.021 -51.7734 158.725c-47.7275 45.8262 -117.878 25.4688 -166.556 -7.05957c-48.8809 -32.665 -91.2881 -77.0605 -124.042 -125.719
c-17.5605 -26.0889 -33.5059 -53.9336 -44.1914 -83.5908c-8.27051 -22.9482 -28.0107 -80.8457 10.2324 -86.9785c14.0879 -2.26172 7.8916 -23.1133 -5.84961 -21.2178c-38.3867 5.29785 -43.7871 47.8389 -37.998 78.8379c7.4707 39.9863 26.124 77.9492 47.5586 112.188
c39.1387 62.5195 93.3848 121.293 157.718 158.387c55.0908 31.7666 126.933 41.1875 177.875 -3.74023z" />
    <glyph glyph-name="O" unicode="&#xd6;" horiz-adv-x="457" 
d="M383.117 519.943c47.8486 -42.2031 59.9463 -113.266 62.9629 -173.639c3.79102 -75.668 -8.23242 -152.562 -26.2139 -225.896c-17.9648 -73.2783 -44.1973 -144.572 -77.8662 -212.094c-15.209 -30.502 -32.2627 -60.2139 -54.4395 -86.249
c-19.3164 -22.6738 -46.0332 -47.7881 -78.0576 -46.6602c-30.4727 1.07324 -48.2754 27.5957 -57.2471 53.7236c-11.8994 34.6562 -15.5762 72.8008 -15.9326 109.247c-0.729492 74.4707 11.6729 149.843 27.6816 222.366c16.7832 76.0312 39.3135 150.916 65.3486 224.265
c6.11035 17.2168 33.499 9.95898 27.6016 -7.6084c-46.4023 -138.211 -90.6357 -283.004 -91.7383 -430.145c-0.242188 -32.3213 2.8291 -171.525 65.4736 -137.723c26.4814 14.2891 46.2275 42.3916 61.7969 67.3438c16.4268 26.3281 30.1104 54.4209 42.873 82.6738
c52.8477 116.979 89.1191 251.434 84.7832 380.562c-1.8252 54.3291 -10.4209 119.021 -51.7734 158.725c-47.7275 45.8262 -117.878 25.4688 -166.556 -7.05957c-48.8809 -32.665 -91.2881 -77.0605 -124.042 -125.719
c-17.5605 -26.0889 -33.5059 -53.9336 -44.1914 -83.5908c-8.27051 -22.9482 -28.0107 -80.8457 10.2324 -86.9785c14.0879 -2.26172 7.8916 -23.1133 -5.84961 -21.2178c-38.3867 5.29785 -43.7871 47.8389 -37.998 78.8379c7.4707 39.9863 26.124 77.9492 47.5586 112.188
c39.1387 62.5195 93.3848 121.293 157.718 158.387c55.0908 31.7666 126.933 41.1875 177.875 -3.74023z" />
    <glyph glyph-name="O" unicode="&#xd5;" horiz-adv-x="457" 
d="M383.117 519.943c47.8486 -42.2031 59.9463 -113.266 62.9629 -173.639c3.79102 -75.668 -8.23242 -152.562 -26.2139 -225.896c-17.9648 -73.2783 -44.1973 -144.572 -77.8662 -212.094c-15.209 -30.502 -32.2627 -60.2139 -54.4395 -86.249
c-19.3164 -22.6738 -46.0332 -47.7881 -78.0576 -46.6602c-30.4727 1.07324 -48.2754 27.5957 -57.2471 53.7236c-11.8994 34.6562 -15.5762 72.8008 -15.9326 109.247c-0.729492 74.4707 11.6729 149.843 27.6816 222.366c16.7832 76.0312 39.3135 150.916 65.3486 224.265
c6.11035 17.2168 33.499 9.95898 27.6016 -7.6084c-46.4023 -138.211 -90.6357 -283.004 -91.7383 -430.145c-0.242188 -32.3213 2.8291 -171.525 65.4736 -137.723c26.4814 14.2891 46.2275 42.3916 61.7969 67.3438c16.4268 26.3281 30.1104 54.4209 42.873 82.6738
c52.8477 116.979 89.1191 251.434 84.7832 380.562c-1.8252 54.3291 -10.4209 119.021 -51.7734 158.725c-47.7275 45.8262 -117.878 25.4688 -166.556 -7.05957c-48.8809 -32.665 -91.2881 -77.0605 -124.042 -125.719
c-17.5605 -26.0889 -33.5059 -53.9336 -44.1914 -83.5908c-8.27051 -22.9482 -28.0107 -80.8457 10.2324 -86.9785c14.0879 -2.26172 7.8916 -23.1133 -5.84961 -21.2178c-38.3867 5.29785 -43.7871 47.8389 -37.998 78.8379c7.4707 39.9863 26.124 77.9492 47.5586 112.188
c39.1387 62.5195 93.3848 121.293 157.718 158.387c55.0908 31.7666 126.933 41.1875 177.875 -3.74023z" />
    <glyph glyph-name="O" unicode="&#xd4;" horiz-adv-x="457" 
d="M383.117 519.943c47.8486 -42.2031 59.9463 -113.266 62.9629 -173.639c3.79102 -75.668 -8.23242 -152.562 -26.2139 -225.896c-17.9648 -73.2783 -44.1973 -144.572 -77.8662 -212.094c-15.209 -30.502 -32.2627 -60.2139 -54.4395 -86.249
c-19.3164 -22.6738 -46.0332 -47.7881 -78.0576 -46.6602c-30.4727 1.07324 -48.2754 27.5957 -57.2471 53.7236c-11.8994 34.6562 -15.5762 72.8008 -15.9326 109.247c-0.729492 74.4707 11.6729 149.843 27.6816 222.366c16.7832 76.0312 39.3135 150.916 65.3486 224.265
c6.11035 17.2168 33.499 9.95898 27.6016 -7.6084c-46.4023 -138.211 -90.6357 -283.004 -91.7383 -430.145c-0.242188 -32.3213 2.8291 -171.525 65.4736 -137.723c26.4814 14.2891 46.2275 42.3916 61.7969 67.3438c16.4268 26.3281 30.1104 54.4209 42.873 82.6738
c52.8477 116.979 89.1191 251.434 84.7832 380.562c-1.8252 54.3291 -10.4209 119.021 -51.7734 158.725c-47.7275 45.8262 -117.878 25.4688 -166.556 -7.05957c-48.8809 -32.665 -91.2881 -77.0605 -124.042 -125.719
c-17.5605 -26.0889 -33.5059 -53.9336 -44.1914 -83.5908c-8.27051 -22.9482 -28.0107 -80.8457 10.2324 -86.9785c14.0879 -2.26172 7.8916 -23.1133 -5.84961 -21.2178c-38.3867 5.29785 -43.7871 47.8389 -37.998 78.8379c7.4707 39.9863 26.124 77.9492 47.5586 112.188
c39.1387 62.5195 93.3848 121.293 157.718 158.387c55.0908 31.7666 126.933 41.1875 177.875 -3.74023z" />
    <glyph glyph-name="O" unicode="&#xd3;" horiz-adv-x="457" 
d="M383.117 519.943c47.8486 -42.2031 59.9463 -113.266 62.9629 -173.639c3.79102 -75.668 -8.23242 -152.562 -26.2139 -225.896c-17.9648 -73.2783 -44.1973 -144.572 -77.8662 -212.094c-15.209 -30.502 -32.2627 -60.2139 -54.4395 -86.249
c-19.3164 -22.6738 -46.0332 -47.7881 -78.0576 -46.6602c-30.4727 1.07324 -48.2754 27.5957 -57.2471 53.7236c-11.8994 34.6562 -15.5762 72.8008 -15.9326 109.247c-0.729492 74.4707 11.6729 149.843 27.6816 222.366c16.7832 76.0312 39.3135 150.916 65.3486 224.265
c6.11035 17.2168 33.499 9.95898 27.6016 -7.6084c-46.4023 -138.211 -90.6357 -283.004 -91.7383 -430.145c-0.242188 -32.3213 2.8291 -171.525 65.4736 -137.723c26.4814 14.2891 46.2275 42.3916 61.7969 67.3438c16.4268 26.3281 30.1104 54.4209 42.873 82.6738
c52.8477 116.979 89.1191 251.434 84.7832 380.562c-1.8252 54.3291 -10.4209 119.021 -51.7734 158.725c-47.7275 45.8262 -117.878 25.4688 -166.556 -7.05957c-48.8809 -32.665 -91.2881 -77.0605 -124.042 -125.719
c-17.5605 -26.0889 -33.5059 -53.9336 -44.1914 -83.5908c-8.27051 -22.9482 -28.0107 -80.8457 10.2324 -86.9785c14.0879 -2.26172 7.8916 -23.1133 -5.84961 -21.2178c-38.3867 5.29785 -43.7871 47.8389 -37.998 78.8379c7.4707 39.9863 26.124 77.9492 47.5586 112.188
c39.1387 62.5195 93.3848 121.293 157.718 158.387c55.0908 31.7666 126.933 41.1875 177.875 -3.74023z" />
    <glyph glyph-name="P" unicode="P" horiz-adv-x="529" 
d="M561.264 725.97c33.624 -7.32422 56.3203 -34.543 63.8486 -67.2139c8.23828 -35.7646 1.62402 -73.2656 -8.31641 -107.97c-11.7148 -40.8945 -29.7666 -80.0078 -50.0127 -117.324c-37.9092 -69.873 -86.3096 -134.295 -142.675 -190.341
c-18.3154 -18.2139 -126.336 -120.873 -166.103 -100.455c0.828125 -50.541 1.63379 -101.079 3.34473 -151.572c16.2676 -67.2256 21.4639 -137.309 14.5283 -206.102c-1.92383 -19.0967 -27.4492 -18.8867 -29.5547 -0.000976562
c-7.27344 65.2412 -11.042 130.657 -13.1738 196.159c-7.5918 32.71 -17.9082 64.8398 -31.1777 95.9951c-15.8213 37.1475 -35.7266 82.6582 -73.0684 102.828c-22.1807 11.9785 -48.3213 11.7998 -72.582 7.77246c-17.3086 -2.87402 -37.2393 -9.71777 -52.5186 2.83105
c-29.0684 23.8691 3.08008 77.4492 16.1299 101.771c18.9277 35.2773 40.4834 69.252 63.6484 101.889c46.6602 65.7285 100.741 126.181 161.213 179.49c60.2744 53.1377 127.525 104.618 202.554 134.775c34.8379 14.002 76.251 25.6748 113.915 17.4678zM587.165 553.025
c9.58008 31.7314 17.6475 67.1377 9.39941 100.083c-8.80859 35.1758 -36.918 48.9229 -71.6758 45.8867c-74.4541 -6.49902 -143.06 -54.3574 -200.967 -97.998c-56.7148 -42.7422 -108.77 -91.8369 -155.293 -145.472
c-47.8652 -55.1826 -90.5947 -115.861 -124.731 -180.516c-7.99707 -15.1396 -21.1709 -36.3447 -21.7822 -53.9502c-0.391602 -11.2939 7.10156 -8.61133 15.6143 -7.05664c8.52832 1.55762 16.9746 3.2334 25.6016 4.2334
c34.0127 3.94141 67.8916 -1.55762 95.4209 -22.8965c25.7451 -19.9561 42.8184 -48.6416 56.9189 -77.499c5.41309 -11.0742 10.4688 -22.333 15.2217 -33.7197c-1.75195 126.847 -0.933594 253.837 -10.8672 380.333c-1.17285 14.9355 21.5205 14.502 23.0469 0
c8.95215 -85.0635 11.998 -170.445 13.7568 -255.895c0.283203 0.550781 0.570312 1.10547 0.850586 1.65039c8.7998 17.0732 18.8066 33.5283 29.9033 49.2061c22.9922 32.4932 50.1904 61.4658 81.2754 86.3193c13.9697 11.1699 33.999 -8.32129 19.9238 -19.9209
c-31.4414 -25.9141 -59.3975 -55.7822 -82.1221 -89.6484c-10.6377 -15.8535 -20.7119 -32.5664 -28.6318 -49.958c-3.37695 -7.41992 -10.1729 -18.8125 2.28125 -15.1582c10.5293 3.08984 21.3613 9.98438 30.6387 15.6484
c34.1396 20.8486 64.374 48.8301 92.6484 76.9326c29.4121 29.2373 56.6807 60.7236 81.0977 94.252c42.9297 58.9453 81.3037 125.03 102.471 195.143z" />
    <glyph glyph-name="Q" unicode="Q" horiz-adv-x="454" 
d="M253.826 673.711c29.2402 22.5977 65.8574 44.9453 104.231 43.5312c80.1758 -2.96289 98.498 -93.7031 95.3789 -157.686c-3.95703 -81.1387 -28.2715 -163.921 -56.0459 -239.873c-8.03516 -21.9697 -62.1445 -163.497 -101.697 -150.011
c3.66406 -18.8604 7.7959 -37.6318 12.374 -56.2881c19.9912 -81.4316 47.4316 -172.032 117.764 -224.434c14.2246 -10.5996 0.563477 -34.7744 -14.1201 -24.1592c-76.0732 55.0078 -107.027 147.946 -128.962 235.329c-7.11719 28.3447 -13.1035 56.957 -18.0801 85.748
c-1.04785 -3.93164 -2.08984 -7.86328 -3.18262 -11.7822c-12.7021 -45.5039 -28.3516 -90.1572 -46.1006 -133.929c-16.3594 -40.3428 -34.3916 -80.5586 -60.1621 -115.894c-18.6123 -25.5186 -45.1924 -59.8145 -80.6709 -57.3936
c-33.7637 2.30371 -51.6465 39.5596 -61.2715 67.5186c-11.7754 34.2002 -13.7188 71.2715 -13.209 107.151c0.563477 39.7441 3.86133 79.4277 9.24512 118.799c21.0879 154.21 77.5166 312.915 171.89 437.952c21.1445 28.0137 44.7871 53.9082 72.6191 75.4189z
M421.113 632.503c-8.68164 28.8447 -30.7422 56.4814 -63.0469 57.6475c-33.5664 1.21973 -66.6455 -20.7598 -91.6865 -41.0957c-49.4609 -40.165 -85.165 -94.5449 -115.832 -149.696c-65.6582 -118.062 -106.657 -250.271 -118.964 -384.833
c-5.6582 -61.8477 -13.2021 -136.276 17.1592 -193.186c6.83398 -12.8105 16.6465 -29.6768 33.6182 -26.6152c14.6611 2.64453 26.5186 16.2129 35.7637 26.8604c22.1807 25.5449 38.9414 55.4414 53.2715 85.9434c29.4824 62.7529 52.4014 129.57 69.5156 196.71
c4.89648 19.2178 9.24805 38.585 12.9883 58.0703c-5.86523 52.9688 -10.5195 107.772 1.85742 160.091c2.21094 9.35059 16.6748 14.4102 23.1582 6.11426c25.6816 -32.8691 15.5312 -79.8516 10.5547 -118.12c-2.13184 -16.376 -4.72559 -32.6748 -7.7168 -48.8975
c2.41504 -22.0146 5.51465 -43.9531 9.23535 -65.7891c3.04297 0.837891 6.41016 0.0800781 9.17188 -3.24316c6.93555 -8.34668 34.2734 41.7646 37.1279 47.0664c9.18164 17.0537 17.3691 34.6338 24.6963 52.5576c14.0723 34.4209 25.1816 69.9814 34.9941 105.826
c10.3447 37.7939 20.2119 75.9326 26.1094 114.711c5.89062 38.7148 9.47168 81.8516 -1.97559 119.878z" />
    <glyph glyph-name="R" unicode="R" horiz-adv-x="598" 
d="M357.013 138.22c-26.3408 -30.2568 -54.4541 -59.001 -84.5771 -85.5176c40.0371 -4.26562 80.8164 -19.3672 113.991 -33.7988c79.2842 -34.4873 151.426 -84.6846 235.326 -108.267c17.4268 -4.90039 10.0068 -31.9102 -7.47754 -27.1221
c-76.2959 20.8896 -143.314 63.6123 -213.917 97.8164c-35.3096 17.1055 -71.9893 31.8721 -110.586 39.6143c-16.248 3.25879 -33.8506 5.10059 -50.8701 3.67676c-2.00684 -1.58008 -3.99805 -3.18555 -6.02441 -4.7373
c0.0253906 -17.3633 0.0449219 -34.7236 0.0644531 -52.084c2.72363 -80.1699 2.98828 -160.454 0.333984 -240.621c-0.624023 -18.8857 -29.4629 -18.9688 -29.4023 0c0.213867 66.8496 0.354492 133.706 0.498047 200.562
c-0.519531 24.1396 -1.28125 48.2725 -2.2373 72.3994c-10.1377 -4.21777 -20.957 -5.72461 -32.2227 -1.67871c-9.57715 3.44043 -14.5283 15.8945 -6.25488 23.6904c11.0801 10.4365 23.3711 17.8818 36.4521 22.9414c-0.18457 3.63184 -0.333984 7.2666 -0.52832 10.8984
c-2.65039 49.4482 -2.83789 101.11 -12.1914 149.845c-3.57422 18.625 -9.00586 38.2188 -21.0449 53.3232c-12.2305 15.3438 -29.7334 21.8457 -48.4023 25.3662c-30.7217 5.79199 -65.043 3.61328 -91.9512 22.0752c-30.792 21.1318 -35.459 58.5537 -27.6855 92.6494
c17.6406 77.3604 75.5254 146.88 130.1 201.77c56.0303 56.3525 120.646 106.205 193.74 138.28c63.5107 27.873 142.731 49.8242 208.985 17.9365c69.5957 -33.5 79.832 -116.521 68.1592 -184.789c-14.2979 -83.627 -53.8057 -161.188 -97.5771 -232.938
c-43.0225 -70.5293 -90.4033 -138.928 -144.7 -201.292zM281.445 99.4521c31.0498 30.0303 59.8125 62.3623 86.749 96.123c54.8066 68.6748 104.542 143.616 145.404 221.429c34.459 65.6201 66.4297 142.531 61.832 218.181
c-2.05762 33.8467 -14.2754 68.7227 -43.0117 88.9404c-27.0801 19.0488 -61.4141 22.4639 -93.5625 19.7148c-72.9121 -6.23828 -143.604 -44.0488 -202.008 -86.0801c-60.4297 -43.4873 -116.53 -98.1543 -159.104 -159.355
c-30.043 -43.1914 -100.012 -157.778 -11.7812 -178.19c28.9756 -6.70312 59.5215 -4.76562 87.3184 -16.5723c25.1396 -10.6758 41.9072 -31.3271 52.124 -55.7344c0.49707 97.2051 1.24219 194.407 2.47852 291.596c0.181641 14.3398 22.085 14.3174 22.251 0
c1.88281 -161.158 2.42773 -322.342 2.68945 -483.522c0.15332 0.124023 0.30957 0.257812 0.456055 0.378906c16.6299 13.7021 32.6738 28.1123 48.1641 43.0928z" />
    <glyph glyph-name="S" unicode="S" horiz-adv-x="500" 
d="M2.84961 150.036c-12.4922 38.5811 -2.82129 82.5107 8.9502 119.971c26.5254 84.4453 75.2539 164.042 128.688 234.049c26.0576 34.1396 54.1982 66.626 84.5537 97.0195c27.5166 27.5488 59.1973 63.2754 97.9316 74.4482
c17.4336 5.02734 36.2686 2.83887 44.6025 -15.2158c7.35352 -15.9268 1.89258 -36.1416 -0.178711 -52.6729c-6.37207 -50.8789 -12.7441 -101.758 -19.1162 -152.64c-2.17871 -17.4043 -29.7754 -17.5635 -27.5771 0c7.13281 56.9863 14.54 113.943 21.4053 170.958
c0.646484 5.37793 2.90234 13.7539 1.33203 19.1504c-2.4082 8.27734 -6.90039 5.53418 -13.1387 3.82617c-12.6484 -3.46582 -24.1562 -11.5547 -34.2334 -19.6914c-19.5547 -15.792 -37.7207 -33.6553 -55.3643 -51.5254
c-72.1387 -73.0654 -132.585 -158.215 -176.735 -250.979c-19.8291 -41.6621 -38.7021 -89.0049 -39.1006 -135.834c-0.181641 -21.2529 4.27832 -43.6016 20.1826 -58.8809c15.0469 -14.4541 36.376 -20.0547 56.291 -23.9258
c37.8799 -7.3623 76.5244 -8.42969 114.972 -10.1562c35.5098 88.2715 80.6318 172.863 129.946 254.129c25.1689 41.4736 51.707 82.1514 79.7617 121.729c14.0781 19.8613 28.4404 39.5498 43.3057 58.834c8.77734 11.3828 18.5039 25.7197 34.5645 17.752
c3.70508 -1.83789 5.8877 -6.31738 5.91016 -10.3027l0.00878906 -1.92188c0.0478516 -9.34375 -8.49316 -12.9219 -15.3623 -10.9111c1.30957 -4.19922 -6.44824 -10.6279 -9.15625 -14.2822c-3.46582 -4.67676 -6.92578 -9.35352 -10.3604 -14.0527
c-8.0127 -10.9629 -15.9199 -22.0049 -23.7188 -33.1201c-15.6016 -22.2402 -30.8555 -44.7197 -45.6416 -67.5117c-28.5205 -43.9561 -55.4131 -88.9668 -80.585 -134.923c-29.6289 -54.0967 -57.5537 -109.592 -80.7949 -166.884
c42.748 -2.7334 84.9609 -8.37598 125.301 -26.6025c33.2637 -15.0312 63.7334 -38.5908 82.1348 -70.5869c20.7207 -36.0293 23.5176 -78.8223 14.7822 -118.84c-17.3916 -79.6631 -81.5557 -156.724 -157.103 -187.844
c-37.6768 -15.5215 -80.9062 -15.7129 -111.679 14.085c-29.5879 28.6543 -39.4385 72.6807 -41.2158 112.354c-3.81348 85.0791 19.5459 172.831 49.6748 252.718c-40.9609 1.50977 -82.0713 2.44922 -121.803 11.8027c-37.0264 8.7168 -69.2646 28.8994 -81.4346 66.4766z
M350.42 48.2773c-37.3896 15.4229 -76.6572 20.0684 -116.395 22.2471c-11.7402 -31.2188 -21.9863 -62.9785 -30.2246 -95.3535c-11.4785 -45.1094 -19.8252 -91.8975 -20.3857 -138.545c-0.487305 -40.5498 6.25098 -97.6504 46.0137 -119.974
c39.5625 -22.209 88.3643 6.94238 119.338 31.7666c32.6396 26.1592 60.0703 59.8027 77.4082 97.9766c18.2676 40.2188 25.6494 89.9062 5.87109 130.995c-16.248 33.7607 -47.6416 56.8652 -81.626 70.8867z" />
    <glyph glyph-name="T" unicode="T" horiz-adv-x="389" 
d="M67.6484 427.189c37.0361 40.7637 80.9932 74.9893 127.055 104.939c32.6621 21.2344 66.5254 40.8721 101.235 59.0381c2.31641 39.7666 5.00195 79.5107 8.18457 119.214c1.23633 15.3945 25.21 15.6016 24.1934 0
c-2.29688 -35.2969 -4.40234 -70.5996 -6.25684 -105.915c63.0898 31.2949 128.688 57.8369 194.995 79.9307c57.9736 19.3193 117.181 34.9561 177.161 46.6455c50.5186 9.84473 112.185 26.4717 159.25 -2.64062c15.458 -9.55762 1.38574 -33.8154 -14.2695 -24.4141
c-27.9336 16.7773 -61.5195 12.3584 -92.2314 7.43652c-32.0566 -5.1416 -63.9248 -11.4434 -95.5352 -18.835c-64.1641 -14.999 -127.261 -34.5156 -188.768 -58.1455c-47.8359 -18.376 -95.7197 -39.0615 -142.189 -62.5635
c-1.26172 -26.4746 -2.42188 -52.9521 -3.32715 -79.4424c-4.36426 -127.538 -5.09668 -255.152 -1.97754 -382.729c1.54492 -63.1768 3.44727 -126.458 9.20703 -189.414c7.26367 -15.8721 13.9951 -31.9893 20.083 -48.3486
c9.04199 -24.292 16.7012 -49.0977 22.8691 -74.2754c5.51758 -22.5146 13.6445 -48.3457 0.180664 -69.4941c-4.69238 -7.37207 -16.5312 -10.3926 -22.9062 -2.95312c-20.3643 23.7539 -28.1221 52.6943 -33.79 82.8584
c-6.40723 34.0986 -10.8994 68.5635 -14.1777 103.102c-0.767578 1.64746 -1.47461 3.32324 -2.25879 4.9668c-26.0635 54.7373 -59.2793 106.202 -98.9404 152.072c-35.2451 40.7695 -75.1328 75.999 -118.41 107.973c-36.791 27.1816 -79.1826 59.9395 -82.7861 109.423
c-3.86426 53.042 39.9961 104.8 73.4102 141.571zM162.104 474.13c-43.2959 -32.9902 -83.0449 -71.8857 -113.053 -117.501c-14.54 -22.1035 -30.3232 -48.2979 -25.124 -75.8809c4.42871 -23.4805 21.8428 -41.8252 39.1904 -57.0029
c38.2021 -33.4229 80.6221 -60.5566 116.903 -96.5c35.9053 -35.5674 67.9365 -75.2129 95.4248 -117.62c5.39355 -8.3252 10.5518 -16.7998 15.582 -25.3477c-6.63281 109.034 -6.05957 218.947 -4.76562 327.889c0.974609 82.0146 3.5166 164.032 7.81152 245.954
c-46.2305 -24.8057 -90.7441 -52.5801 -131.97 -83.9902z" />
    <glyph glyph-name="U" unicode="U" horiz-adv-x="499" 
d="M167.163 -120.721c23.123 45.2051 41.9854 92.376 59.7598 139.884c73.1064 195.458 143.4 391.792 237.792 578.336c6.2793 12.4092 29.4219 7.21289 27.4629 -7.43555c-8.86621 -66.2129 -17.293 -132.486 -24.5889 -198.89
c-25.7607 -234.526 -37.1348 -472.01 -4.56836 -706.473c2.56445 -18.4746 -25.6182 -26.4873 -28.3232 -7.80859c-9.57324 66.1484 -15.7383 132.718 -18.8379 199.481c-9.72949 209.405 9.27441 418.613 35.4531 626.309
c-46.0039 -98.3359 -86.8281 -199.029 -125.364 -300.541c-41.4775 -109.254 -76.2959 -222.475 -128.232 -327.393c-18.1377 -36.6406 -46.6416 -107.097 -97.708 -103.42c-50.2285 3.61621 -63.8896 78.6152 -71.0039 117.082
c-10.9248 59.0508 -13.1611 120.055 -14.4863 179.966c-1.39551 63.0078 0.121094 126.057 3.48242 188.981c3.31641 62.084 7.03711 124.706 15.292 186.356c2.30957 17.2549 2.06738 57.4258 22.5684 64.5879c18.2646 6.38086 27 -15.0693 27.2227 -29.333
c0.194336 -12.208 -14.958 -13.2812 -19.918 -4.63477c-0.222656 -0.777344 -0.407227 -1.44922 -0.493164 -1.90527c-1.64062 -8.66602 -3.04883 -17.3701 -4.15723 -26.1221c-1.74609 -13.7881 -2.94434 -27.6465 -4.10059 -41.4922
c-2.5293 -30.2441 -4.69531 -60.5137 -6.65137 -90.7988c-3.99219 -61.8545 -6.56641 -123.811 -6.60742 -185.802c-0.0351562 -54.4434 1.78418 -108.926 6.31738 -163.188c4.04297 -48.4189 9.13086 -104.497 33.8213 -147.564
c30.6895 -53.5322 73.6543 37.9414 85.8691 61.8164z" />
    <glyph glyph-name="U" unicode="&#xdc;" horiz-adv-x="499" 
d="M167.163 -120.721c23.123 45.2051 41.9854 92.376 59.7598 139.884c73.1064 195.458 143.4 391.792 237.792 578.336c6.2793 12.4092 29.4219 7.21289 27.4629 -7.43555c-8.86621 -66.2129 -17.293 -132.486 -24.5889 -198.89
c-25.7607 -234.526 -37.1348 -472.01 -4.56836 -706.473c2.56445 -18.4746 -25.6182 -26.4873 -28.3232 -7.80859c-9.57324 66.1484 -15.7383 132.718 -18.8379 199.481c-9.72949 209.405 9.27441 418.613 35.4531 626.309
c-46.0039 -98.3359 -86.8281 -199.029 -125.364 -300.541c-41.4775 -109.254 -76.2959 -222.475 -128.232 -327.393c-18.1377 -36.6406 -46.6416 -107.097 -97.708 -103.42c-50.2285 3.61621 -63.8896 78.6152 -71.0039 117.082
c-10.9248 59.0508 -13.1611 120.055 -14.4863 179.966c-1.39551 63.0078 0.121094 126.057 3.48242 188.981c3.31641 62.084 7.03711 124.706 15.292 186.356c2.30957 17.2549 2.06738 57.4258 22.5684 64.5879c18.2646 6.38086 27 -15.0693 27.2227 -29.333
c0.194336 -12.208 -14.958 -13.2812 -19.918 -4.63477c-0.222656 -0.777344 -0.407227 -1.44922 -0.493164 -1.90527c-1.64062 -8.66602 -3.04883 -17.3701 -4.15723 -26.1221c-1.74609 -13.7881 -2.94434 -27.6465 -4.10059 -41.4922
c-2.5293 -30.2441 -4.69531 -60.5137 -6.65137 -90.7988c-3.99219 -61.8545 -6.56641 -123.811 -6.60742 -185.802c-0.0351562 -54.4434 1.78418 -108.926 6.31738 -163.188c4.04297 -48.4189 9.13086 -104.497 33.8213 -147.564
c30.6895 -53.5322 73.6543 37.9414 85.8691 61.8164z" />
    <glyph glyph-name="U" unicode="&#xdb;" horiz-adv-x="499" 
d="M167.163 -120.721c23.123 45.2051 41.9854 92.376 59.7598 139.884c73.1064 195.458 143.4 391.792 237.792 578.336c6.2793 12.4092 29.4219 7.21289 27.4629 -7.43555c-8.86621 -66.2129 -17.293 -132.486 -24.5889 -198.89
c-25.7607 -234.526 -37.1348 -472.01 -4.56836 -706.473c2.56445 -18.4746 -25.6182 -26.4873 -28.3232 -7.80859c-9.57324 66.1484 -15.7383 132.718 -18.8379 199.481c-9.72949 209.405 9.27441 418.613 35.4531 626.309
c-46.0039 -98.3359 -86.8281 -199.029 -125.364 -300.541c-41.4775 -109.254 -76.2959 -222.475 -128.232 -327.393c-18.1377 -36.6406 -46.6416 -107.097 -97.708 -103.42c-50.2285 3.61621 -63.8896 78.6152 -71.0039 117.082
c-10.9248 59.0508 -13.1611 120.055 -14.4863 179.966c-1.39551 63.0078 0.121094 126.057 3.48242 188.981c3.31641 62.084 7.03711 124.706 15.292 186.356c2.30957 17.2549 2.06738 57.4258 22.5684 64.5879c18.2646 6.38086 27 -15.0693 27.2227 -29.333
c0.194336 -12.208 -14.958 -13.2812 -19.918 -4.63477c-0.222656 -0.777344 -0.407227 -1.44922 -0.493164 -1.90527c-1.64062 -8.66602 -3.04883 -17.3701 -4.15723 -26.1221c-1.74609 -13.7881 -2.94434 -27.6465 -4.10059 -41.4922
c-2.5293 -30.2441 -4.69531 -60.5137 -6.65137 -90.7988c-3.99219 -61.8545 -6.56641 -123.811 -6.60742 -185.802c-0.0351562 -54.4434 1.78418 -108.926 6.31738 -163.188c4.04297 -48.4189 9.13086 -104.497 33.8213 -147.564
c30.6895 -53.5322 73.6543 37.9414 85.8691 61.8164z" />
    <glyph glyph-name="U" unicode="&#xda;" horiz-adv-x="499" 
d="M167.163 -120.721c23.123 45.2051 41.9854 92.376 59.7598 139.884c73.1064 195.458 143.4 391.792 237.792 578.336c6.2793 12.4092 29.4219 7.21289 27.4629 -7.43555c-8.86621 -66.2129 -17.293 -132.486 -24.5889 -198.89
c-25.7607 -234.526 -37.1348 -472.01 -4.56836 -706.473c2.56445 -18.4746 -25.6182 -26.4873 -28.3232 -7.80859c-9.57324 66.1484 -15.7383 132.718 -18.8379 199.481c-9.72949 209.405 9.27441 418.613 35.4531 626.309
c-46.0039 -98.3359 -86.8281 -199.029 -125.364 -300.541c-41.4775 -109.254 -76.2959 -222.475 -128.232 -327.393c-18.1377 -36.6406 -46.6416 -107.097 -97.708 -103.42c-50.2285 3.61621 -63.8896 78.6152 -71.0039 117.082
c-10.9248 59.0508 -13.1611 120.055 -14.4863 179.966c-1.39551 63.0078 0.121094 126.057 3.48242 188.981c3.31641 62.084 7.03711 124.706 15.292 186.356c2.30957 17.2549 2.06738 57.4258 22.5684 64.5879c18.2646 6.38086 27 -15.0693 27.2227 -29.333
c0.194336 -12.208 -14.958 -13.2812 -19.918 -4.63477c-0.222656 -0.777344 -0.407227 -1.44922 -0.493164 -1.90527c-1.64062 -8.66602 -3.04883 -17.3701 -4.15723 -26.1221c-1.74609 -13.7881 -2.94434 -27.6465 -4.10059 -41.4922
c-2.5293 -30.2441 -4.69531 -60.5137 -6.65137 -90.7988c-3.99219 -61.8545 -6.56641 -123.811 -6.60742 -185.802c-0.0351562 -54.4434 1.78418 -108.926 6.31738 -163.188c4.04297 -48.4189 9.13086 -104.497 33.8213 -147.564
c30.6895 -53.5322 73.6543 37.9414 85.8691 61.8164z" />
    <glyph glyph-name="V" unicode="V" horiz-adv-x="572" 
d="M-3.64355 540.324c-3.36719 14.2725 18.1133 20.2383 21.9844 6.06055c17.2422 -63.1221 33.458 -126.527 50.1553 -189.796c29.0908 -110.226 58.2607 -220.423 88.0615 -330.457c14.9004 -55.0205 29.9375 -109.999 45.1631 -164.927
c7.55078 -27.2461 15.0439 -54.5146 22.7441 -81.7188c3.79102 -13.3906 7.77637 -26.6504 14.0879 -38.6328c7.97461 33.4297 12.1484 67.9775 18.5459 101.602c7.72266 40.5918 16.251 81.0303 25.7764 121.236c34.6113 146.093 81.9951 289.599 147.666 424.802
c32.8691 67.6719 70.3262 133.308 113.1 195.229c37.7754 54.6855 82.0908 107.813 143.646 136.254c17.0059 7.85645 31.9697 -17.0762 14.8486 -25.4043c-69.8955 -34 -115.766 -98.9473 -156.695 -162.604c-79.2168 -123.211 -138.917 -258.01 -183.784 -397.233
c-22.4668 -69.7109 -41.3145 -140.55 -57.3398 -212.006c-7.80566 -34.8057 -14.9258 -69.7617 -21.4414 -104.832c-7.04395 -37.9121 -11.0391 -77.2295 -23.7285 -113.788c-3.66406 -10.5547 -16.3887 -14.6133 -24.835 -6.55566
c-19.0195 18.1436 -28.5107 42.2256 -35.6377 67.041c-8.7832 30.585 -16.665 61.4561 -24.917 92.1875c-61.0127 227.247 -123.36 454.51 -177.399 683.544z" />
    <glyph glyph-name="W" unicode="W" horiz-adv-x="748" 
d="M940.113 678.572c-82.4385 -38.7305 -141.561 -109.77 -190.027 -184.874c-53.5801 -83.0312 -98.877 -171.81 -135.25 -263.669c-32.9609 -83.2441 -58.8086 -169.308 -77.0576 -256.961c-9.2168 -44.2812 -13.2852 -91.4902 -26.9082 -134.659
c-4.86816 -15.4297 -17.5771 -28.4375 -35.0801 -23.4775c-15.9961 4.5332 -24.8145 21.5908 -32.416 34.8955c-41.6426 72.8867 -61.3916 155.398 -77.2031 237.104c-7.92285 40.9551 -14.9766 82.0752 -23.582 122.896c-2.2334 10.5967 -4.56543 21.1738 -7.05078 31.7129
c-1.00977 4.29102 -3.38965 25.4355 -8.57617 27.124c-0.0888672 0.0283203 -6.01465 -11.5332 -7.62012 -15.0635c-4.94434 -10.8643 -9.35352 -21.9736 -13.5234 -33.1562c-30.4697 -81.7148 -44.5801 -168.184 -63.3516 -253.018
c-4.91309 -22.209 -10.1279 -44.3672 -16.0732 -66.3271c-4.30078 -15.8848 -7.10449 -38.1953 -24.3086 -45.3408c-39.3359 -16.3369 -49.3076 53.2109 -55.2139 75.3564c-50.4775 189.3 -101.557 378.449 -150.467 568.163
c-3.5459 13.7471 17.3564 19.4629 21.2148 5.84961c29.2939 -103.363 57.8457 -206.934 86.2832 -310.536c13.9414 -50.7832 27.8828 -101.569 41.8213 -152.353c14.1553 -51.5605 26.6504 -104.186 43.7715 -154.701c2.04492 -6.02734 0.958984 -4.65723 2.71777 -0.569336
c2.16309 5.02441 3.16309 11.1191 4.60645 16.3945c2.49805 9.13672 4.89062 18.2959 7.18164 27.4873c5.04688 20.2529 9.59961 40.627 13.9736 61.0322c9.14648 42.666 17.4326 85.5195 27.5801 127.962c9.6377 40.3203 20.9668 80.3037 36.1631 118.914
c8.70703 22.123 28.8799 80.3262 63.0615 52.8252c13.8203 -11.1191 16.2988 -31.4258 20.0137 -47.5811c4.0459 -17.6211 7.7002 -35.3311 11.1729 -53.0732c8.0127 -40.9355 15.0312 -82.0625 23.4512 -122.918c8.13672 -39.4893 17.5605 -78.7939 30.5625 -116.993
c3.01367 -8.85352 44.7715 -112.803 53.3447 -107.932c0.487305 0.280273 2.92773 17.4746 3.26855 19.0674c0.850586 3.9502 1.68164 7.9043 2.49707 11.8613c2.4502 11.874 4.74121 23.7764 7 35.6855c4.1416 21.8359 8.11133 43.707 12.5654 65.4824
c8.40137 41.0596 18.4404 81.7783 30.1133 122.029c23.6934 81.7021 54.1025 161.461 90.5078 238.34c35.7812 75.5596 76.9209 149.966 126.359 217.529c45.1504 61.708 99.7148 117.818 169.957 150.334c16.6846 7.72266 31.2979 -16.9619 14.5205 -24.8438z" />
    <glyph glyph-name="X" unicode="X" horiz-adv-x="459" 
d="M404.03 526.746c-4.42188 4.40625 -5.47559 12.7422 1.3418 17.2344c16.3018 10.7139 32.6074 21.415 48.8965 32.1484c10.9053 7.1875 21.623 -8.53125 13.4033 -17.3691c-45.291 -48.7031 -90.9355 -96.998 -134.675 -147.118
c-53.9121 -61.7842 -105.485 -125.343 -154.88 -190.491c20.5361 -62.9092 43.4463 -125.021 69.8164 -185.745c44.4658 -102.392 96.1094 -218.775 192.811 -282.197c14.4414 -9.47168 0.974609 -32.748 -13.5947 -23.2539
c-53.7744 35.042 -94.1074 85.207 -126.674 139.905c-60.3984 101.445 -104.351 214.003 -141.173 326.273c-85.917 -115.367 -164.975 -235.701 -237.374 -360.461c-8.98145 -15.4775 -32.8506 -1.53613 -23.9844 14.0176c33.3818 58.5635 68.8857 115.951 105.804 172.348
c45.9912 70.2549 94.5215 138.841 145.371 205.662c-19.498 61.5518 -36.7852 123.785 -52.5264 186.4c-16.7422 66.582 -31.9229 133.533 -37.6602 202.087c-1.17871 14.0781 20.2783 13.6797 21.7529 -0.000976562c8.08887 -75.002 26.9814 -148.466 46.3672 -221.206
c12.7275 -47.7627 26.2832 -95.3564 41.0596 -142.562c14.4414 18.6377 29.0166 37.1699 43.8242 55.5176c60.8096 75.3369 124.305 149.377 192.094 218.811z" />
    <glyph glyph-name="Y" unicode="Y" horiz-adv-x="561" 
d="M29.5557 168.266c-8.86328 52.376 -11.4707 106.593 -13.7617 159.59c-2.35156 54.4219 -2.39941 108.951 -0.0898438 163.376c2.18848 51.459 6.97363 103.045 22.0361 152.516c4.82617 15.8564 29.6855 9.06738 24.8652 -6.85254
c-8.26465 -27.2744 -13.5918 -55.1797 -16.6279 -83.5088c-12.5146 -116.798 -7.0791 -237.651 6.26953 -354.115c1.2168 -10.5928 9.75781 -80.5293 29.2305 -68.8848c9.52246 5.69336 15.2383 23.7578 19.8389 33.207c5.19629 10.6729 10.2617 21.4092 15.2188 32.1963
c22.0527 47.9922 41.8311 96.9785 61.3604 146.038c37.8486 95.0732 74.9033 191.01 124.654 280.667c12.7783 23.0215 26.3916 45.5869 41.0049 67.4902c12.7344 19.0898 25.666 40.0625 44.208 54.0801c16.9365 12.8037 40.8115 19.0293 60.7139 9.25488
c20.2812 -9.95898 29.4375 -31.4258 37.6348 -51.2041c20.75 -50.0635 30.7412 -103.539 37.957 -157.011c7.97754 -59.1338 12.5781 -118.637 14.9707 -178.245c4.69238 -116.926 3.74023 -234.94 -5.95117 -351.592c-9.06055 -109.062 -23.2568 -225.004 -68.082 -325.892
c-19.0361 -42.8408 -46.6064 -89.626 -89.5908 -112.135c-42.5283 -22.2695 -86.1055 -8.13379 -113.348 29.8643c-29.1699 40.6875 -39.4795 95.0137 -42.334 144.013c-3.01074 51.6816 2.57715 104.115 11.6348 154.979c9.02246 50.6592 23.5283 100.382 45.6543 146.922
c9.57715 20.1416 20.791 47.958 38.4092 62.4033c14.6523 12.0137 33.9561 6.76367 40.7129 -10.4688c6.71582 -17.127 -20.874 -24.4766 -27.5039 -7.58203c1.64062 -4.17969 2.55859 -5.28809 2.91895 -5.5332c-0.302734 -0.0634766 -0.97168 -0.611328 -1.9082 -3.26172
c-0.8125 -2.29102 -3.125 -4.83691 -4.4248 -6.91113c-3.38672 -5.39648 -6.65234 -10.8701 -9.77734 -16.4229c-5.3457 -9.50391 -10.3281 -19.2148 -14.9473 -29.0908c-40.6328 -86.8662 -58.2354 -192.38 -51.9658 -287.861
c2.98828 -45.4658 13.1484 -102.937 46.75 -136.631c39.9287 -40.0371 89.501 0.261719 114.287 36.3135c57.7764 84.0312 75.2002 194.441 87.918 293.522c13.8174 107.629 16.7676 216.469 16.376 324.878c-0.395508 109.085 -4.33301 219.932 -24.748 327.354
c-4.74414 24.958 -10.7334 49.7158 -18.8096 73.8174c-6.1709 18.4141 -15.9199 57.8525 -38.3555 62.791c-25.1211 5.53027 -43.5391 -23.2734 -55.54 -40.6113c-13.4512 -19.4277 -26.0674 -39.4287 -37.9668 -59.8408
c-48.5693 -83.3145 -84.8252 -172.873 -120.469 -262.253c-17.752 -44.5137 -35.3984 -89.0713 -54.2236 -133.142c-9.33496 -21.8584 -18.9727 -43.5859 -29.0908 -65.0908c-9.14355 -19.4375 -17.4395 -43.6602 -33.7354 -58.4619
c-39.5146 -35.8926 -66.123 26.29 -71.373 57.3301z" />
    <glyph glyph-name="Y" unicode="&#x178;" horiz-adv-x="561" 
d="M29.5557 168.266c-8.86328 52.376 -11.4707 106.593 -13.7617 159.59c-2.35156 54.4219 -2.39941 108.951 -0.0898438 163.376c2.18848 51.459 6.97363 103.045 22.0361 152.516c4.82617 15.8564 29.6855 9.06738 24.8652 -6.85254
c-8.26465 -27.2744 -13.5918 -55.1797 -16.6279 -83.5088c-12.5146 -116.798 -7.0791 -237.651 6.26953 -354.115c1.2168 -10.5928 9.75781 -80.5293 29.2305 -68.8848c9.52246 5.69336 15.2383 23.7578 19.8389 33.207c5.19629 10.6729 10.2617 21.4092 15.2188 32.1963
c22.0527 47.9922 41.8311 96.9785 61.3604 146.038c37.8486 95.0732 74.9033 191.01 124.654 280.667c12.7783 23.0215 26.3916 45.5869 41.0049 67.4902c12.7344 19.0898 25.666 40.0625 44.208 54.0801c16.9365 12.8037 40.8115 19.0293 60.7139 9.25488
c20.2812 -9.95898 29.4375 -31.4258 37.6348 -51.2041c20.75 -50.0635 30.7412 -103.539 37.957 -157.011c7.97754 -59.1338 12.5781 -118.637 14.9707 -178.245c4.69238 -116.926 3.74023 -234.94 -5.95117 -351.592c-9.06055 -109.062 -23.2568 -225.004 -68.082 -325.892
c-19.0361 -42.8408 -46.6064 -89.626 -89.5908 -112.135c-42.5283 -22.2695 -86.1055 -8.13379 -113.348 29.8643c-29.1699 40.6875 -39.4795 95.0137 -42.334 144.013c-3.01074 51.6816 2.57715 104.115 11.6348 154.979c9.02246 50.6592 23.5283 100.382 45.6543 146.922
c9.57715 20.1416 20.791 47.958 38.4092 62.4033c14.6523 12.0137 33.9561 6.76367 40.7129 -10.4688c6.71582 -17.127 -20.874 -24.4766 -27.5039 -7.58203c1.64062 -4.17969 2.55859 -5.28809 2.91895 -5.5332c-0.302734 -0.0634766 -0.97168 -0.611328 -1.9082 -3.26172
c-0.8125 -2.29102 -3.125 -4.83691 -4.4248 -6.91113c-3.38672 -5.39648 -6.65234 -10.8701 -9.77734 -16.4229c-5.3457 -9.50391 -10.3281 -19.2148 -14.9473 -29.0908c-40.6328 -86.8662 -58.2354 -192.38 -51.9658 -287.861
c2.98828 -45.4658 13.1484 -102.937 46.75 -136.631c39.9287 -40.0371 89.501 0.261719 114.287 36.3135c57.7764 84.0312 75.2002 194.441 87.918 293.522c13.8174 107.629 16.7676 216.469 16.376 324.878c-0.395508 109.085 -4.33301 219.932 -24.748 327.354
c-4.74414 24.958 -10.7334 49.7158 -18.8096 73.8174c-6.1709 18.4141 -15.9199 57.8525 -38.3555 62.791c-25.1211 5.53027 -43.5391 -23.2734 -55.54 -40.6113c-13.4512 -19.4277 -26.0674 -39.4287 -37.9668 -59.8408
c-48.5693 -83.3145 -84.8252 -172.873 -120.469 -262.253c-17.752 -44.5137 -35.3984 -89.0713 -54.2236 -133.142c-9.33496 -21.8584 -18.9727 -43.5859 -29.0908 -65.0908c-9.14355 -19.4375 -17.4395 -43.6602 -33.7354 -58.4619
c-39.5146 -35.8926 -66.123 26.29 -71.373 57.3301z" />
    <glyph glyph-name="Y" unicode="&#xdd;" horiz-adv-x="561" 
d="M29.5557 168.266c-8.86328 52.376 -11.4707 106.593 -13.7617 159.59c-2.35156 54.4219 -2.39941 108.951 -0.0898438 163.376c2.18848 51.459 6.97363 103.045 22.0361 152.516c4.82617 15.8564 29.6855 9.06738 24.8652 -6.85254
c-8.26465 -27.2744 -13.5918 -55.1797 -16.6279 -83.5088c-12.5146 -116.798 -7.0791 -237.651 6.26953 -354.115c1.2168 -10.5928 9.75781 -80.5293 29.2305 -68.8848c9.52246 5.69336 15.2383 23.7578 19.8389 33.207c5.19629 10.6729 10.2617 21.4092 15.2188 32.1963
c22.0527 47.9922 41.8311 96.9785 61.3604 146.038c37.8486 95.0732 74.9033 191.01 124.654 280.667c12.7783 23.0215 26.3916 45.5869 41.0049 67.4902c12.7344 19.0898 25.666 40.0625 44.208 54.0801c16.9365 12.8037 40.8115 19.0293 60.7139 9.25488
c20.2812 -9.95898 29.4375 -31.4258 37.6348 -51.2041c20.75 -50.0635 30.7412 -103.539 37.957 -157.011c7.97754 -59.1338 12.5781 -118.637 14.9707 -178.245c4.69238 -116.926 3.74023 -234.94 -5.95117 -351.592c-9.06055 -109.062 -23.2568 -225.004 -68.082 -325.892
c-19.0361 -42.8408 -46.6064 -89.626 -89.5908 -112.135c-42.5283 -22.2695 -86.1055 -8.13379 -113.348 29.8643c-29.1699 40.6875 -39.4795 95.0137 -42.334 144.013c-3.01074 51.6816 2.57715 104.115 11.6348 154.979c9.02246 50.6592 23.5283 100.382 45.6543 146.922
c9.57715 20.1416 20.791 47.958 38.4092 62.4033c14.6523 12.0137 33.9561 6.76367 40.7129 -10.4688c6.71582 -17.127 -20.874 -24.4766 -27.5039 -7.58203c1.64062 -4.17969 2.55859 -5.28809 2.91895 -5.5332c-0.302734 -0.0634766 -0.97168 -0.611328 -1.9082 -3.26172
c-0.8125 -2.29102 -3.125 -4.83691 -4.4248 -6.91113c-3.38672 -5.39648 -6.65234 -10.8701 -9.77734 -16.4229c-5.3457 -9.50391 -10.3281 -19.2148 -14.9473 -29.0908c-40.6328 -86.8662 -58.2354 -192.38 -51.9658 -287.861
c2.98828 -45.4658 13.1484 -102.937 46.75 -136.631c39.9287 -40.0371 89.501 0.261719 114.287 36.3135c57.7764 84.0312 75.2002 194.441 87.918 293.522c13.8174 107.629 16.7676 216.469 16.376 324.878c-0.395508 109.085 -4.33301 219.932 -24.748 327.354
c-4.74414 24.958 -10.7334 49.7158 -18.8096 73.8174c-6.1709 18.4141 -15.9199 57.8525 -38.3555 62.791c-25.1211 5.53027 -43.5391 -23.2734 -55.54 -40.6113c-13.4512 -19.4277 -26.0674 -39.4287 -37.9668 -59.8408
c-48.5693 -83.3145 -84.8252 -172.873 -120.469 -262.253c-17.752 -44.5137 -35.3984 -89.0713 -54.2236 -133.142c-9.33496 -21.8584 -18.9727 -43.5859 -29.0908 -65.0908c-9.14355 -19.4375 -17.4395 -43.6602 -33.7354 -58.4619
c-39.5146 -35.8926 -66.123 26.29 -71.373 57.3301z" />
    <glyph glyph-name="Z" unicode="Z" horiz-adv-x="908" 
d="M-8.77344 360.779c3.43164 33.9111 44.2021 58.8525 69.4316 76.3525c35.1914 24.3975 73.5146 43.8916 112.386 61.6689c142.126 64.999 293.421 108.63 448.342 129.208c74.2246 9.86035 157.558 18.207 229.339 -8.89258
c25.9268 -9.78711 51.3027 -26.4014 60.4014 -53.9717c11.3574 -34.4209 -6.80859 -69.6885 -24.4551 -98.4033c-39.5498 -64.3643 -91.2031 -120.372 -145.214 -172.783c-22.4697 -21.8047 -45.2422 -43.3066 -68.1484 -64.6748
c21.1289 0.646484 42.3154 0.0253906 63.4062 -1.9248c16.7354 -1.54492 16.7383 -27.9209 0 -26.2324c-31.1133 3.1377 -62.1123 3.34473 -92.8213 0.84668c-26.4941 -24.5215 -53.0713 -48.9512 -79.4883 -73.5244c-61.9277 -57.6104 -123.839 -115.243 -185.789 -172.831
c-40.0215 -37.208 -83.4297 -73.3994 -121.864 -113.446c73.0938 39.0117 146.8 76.6309 224.383 106.368c50.9551 19.5332 103.188 36.8965 156.265 49.7129c50.4521 12.1826 102.685 18.1816 153.503 4.71191c18.749 -4.96973 10.7588 -33.9453 -8.00586 -29.0391
c-51.5508 13.4697 -104.182 4.21484 -154.723 -9.25195c-49.0088 -13.0586 -97.291 -29.1348 -144.561 -47.4951c-97.6729 -37.9346 -189.104 -89.0303 -281.253 -138.469c-12.2598 -6.57617 -30.0146 7.63574 -20.6416 20.6406
c46.2119 64.1289 108.779 115.387 166.371 168.862c61.9844 57.5566 124.001 115.081 186.002 172.618c19.5898 18.1787 39.2148 36.3193 58.8369 54.4629c-29.377 -5.33984 -58.3848 -13.1611 -86.8574 -23.3877c-13.3936 -4.81055 -18.3506 15.7549 -5.77246 20.9287
c40.1738 16.5254 82.3867 27.3604 125.316 32.7354c23.6621 21.9346 47.2822 43.9111 70.7588 66.04c49.6777 46.8262 98.7217 95.249 139.109 150.515c19.0361 26.0508 42.7842 56.4023 49.6182 88.5381c7.27344 34.207 -18.7334 54.5391 -47.9229 64.5684
c-66.7764 22.9482 -141.278 16.2607 -209.966 7.33984c-142.298 -18.4814 -282.582 -57.1299 -414.245 -114.189c-61.9561 -26.8506 -125.403 -56.8047 -176.129 -102.271c-9.80664 -8.79004 -31.1201 -28.4404 -12.9512 -39.1455
c13.5273 -7.9707 35.8633 -8.36914 51.0947 -9.01562c35.2139 -1.49414 70.1953 5.43555 102.217 20.1162c13.9863 6.41016 26.2324 -14.2441 12.1602 -20.8037c-37.5518 -17.5029 -78.4492 -26.29 -119.948 -23.875c-29.1348 1.69141 -82.3105 6.63867 -78.1846 47.3926z
" />
    <glyph glyph-name="bracketleft" unicode="[" horiz-adv-x="259" 
d="M186.492 -189.191c16.7451 8.85059 31.4805 -16.166 14.8662 -25.4434c-30.7539 -17.1875 -68.3408 -33.5693 -101.983 -13.7627c-27.5996 16.251 -40.4385 49.5215 -49.0791 78.6689c-20.7119 69.8828 -22.0117 146.522 -24.0029 218.855
c-2.1123 76.7676 -2.26562 153.656 -2.29102 230.452c-0.00976562 38.0488 0.264648 76.1016 1.02637 114.145c0.716797 35.876 -0.251953 72.7627 4.51758 108.378c3.3291 24.8467 13.3613 49.9551 37.5547 60.832c20.9697 9.42383 43.8223 5.55273 57.9707 -12.833
c8.30273 -10.791 -10.376 -24.9873 -18.8027 -14.5088c-8.03516 9.99414 -20.8779 9.67188 -31.4268 3.36035c-11.2686 -6.74414 -16.1367 -20.1855 -18.6758 -32.4229c-6.45117 -31.082 -4.08398 -65.3555 -4.65723 -96.9561
c-2.27441 -125.184 -0.777344 -251.014 4.03613 -376.127c2.31641 -60.21 4.6709 -122.431 19.5391 -181.08c5.94824 -23.4678 13.499 -51.8447 31.8145 -69.0195c23.4834 -22.0205 55.7949 -5.11328 79.5938 7.46191z" />
    <glyph glyph-name="backslash" unicode="\" horiz-adv-x="323" 
d="M272.549 -148.339c5.10742 -18.1309 -22.9854 -25.7744 -28.127 -7.75488c-66.2764 232.335 -129.701 465.45 -193.977 698.339c-3.71191 13.4512 16.958 19.0645 20.832 5.74121c67.4736 -231.997 135.792 -463.745 201.271 -696.325z" />
    <glyph glyph-name="bracketright" unicode="]" horiz-adv-x="224" 
d="M195.353 315.933c3.99512 -65.8877 5.80762 -132.01 5.75391 -198.016c-0.0507812 -65.9736 -2.65039 -132.03 -10.6152 -197.558c-3.55566 -29.2588 -5.64258 -61.3916 -15.1367 -89.4277c-8.00586 -23.6426 -26.8125 -39.0244 -52.1914 -35.5068
c-16.1113 2.23047 -12.1572 30.2891 3.83887 28.3555c27.6982 -3.35156 29.0107 54.8896 31.7061 72.8262c4.71191 31.3369 7.94922 62.8896 10.2334 94.4941c7.87207 108.853 5.71875 219.037 -0.576172 327.925c-3.16992 54.8447 -6.10449 111.034 -18.3857 164.732
c-4.86523 21.2656 -10.3008 46.6504 -25.6631 63.1084c-18.8984 20.25 -40.4258 -0.566406 -60.9746 -6.69629c-13.4092 -4.00195 -19.0645 16.8691 -5.75684 20.8799c26.2803 7.92676 47.1543 27.0234 74.3877 9.14062c21.7695 -14.292 31.5371 -41.8213 38.4854 -65.5879
c17.6689 -60.4463 21.1006 -126.124 24.8945 -188.67z" />
    <glyph glyph-name="asciicircum" unicode="^" horiz-adv-x="163" 
d="M120.874 413.841c31.5879 5.71875 25.2021 -36.6182 23.1152 -54.2168c-3.8584 -32.4834 -9.13379 -65.2119 -1.77441 -97.5898c3.99512 -17.5801 -22.9316 -25.0254 -27.0254 -7.45215c-5.62598 24.165 -5.36133 48.3428 -2.73926 72.8936
c1.25195 11.7178 2.96582 23.3779 4.37988 35.0732c0.822266 6.78906 1.69824 13.6035 2.1377 20.4307c0.015625 0.222656 0.0351562 0.404297 0.0507812 0.611328c-2.14453 -4.00195 -11.3457 -9.19141 -14.8535 -12.8838
c-3.57812 -3.7627 -6.91406 -7.76074 -10.2148 -11.7656c-7.67188 -9.30566 -15.0156 -18.8857 -22.0537 -28.6787c-14.2373 -19.8096 -27.1875 -40.5908 -39.001 -61.9297c-6.79883 -12.2852 -24.7451 -1.45312 -18.6533 10.9014
c14.126 28.6631 30.4121 56.0684 49.2539 81.9023c13.5811 18.625 32.6201 48.2217 57.3779 52.7041z" />
    <glyph glyph-name="underscore" unicode="_" horiz-adv-x="321" 
d="M282.457 -5.62988c17.2139 1.27734 17.0996 -25.5469 0.000976562 -26.7803c-80.96 -5.83691 -161.43 -16.0732 -241.236 -30.8975c-16.2959 -3.02637 -23.2441 21.8555 -6.88184 24.9619c82.0244 15.5596 164.857 26.5449 248.117 32.7158z" />
    <glyph glyph-name="grave" unicode="`" horiz-adv-x="101" 
d="M85.3076 339.521c5.25 -15.0791 -18.5518 -21.4287 -23.8086 -6.56641c-15.6523 44.2588 -31.1768 88.5615 -46.7334 132.855c-5.32715 15.168 18.7363 21.6357 24.0029 6.61719c15.5342 -44.2939 31.1006 -88.5781 46.5391 -132.906z" />
    <glyph glyph-name="a" unicode="a" horiz-adv-x="165" 
d="M155.36 -9.49023c6.08203 -15.7607 -19.2471 -22.5205 -25.249 -6.9668c-10.7432 27.8545 -7.2002 64.3135 -6.50586 93.4258c0.318359 13.2598 0.729492 26.5898 1.36621 39.916c-13.3359 -22.9893 -28.2305 -45.1182 -45.3262 -65.1221
c-11.0518 -12.9316 -26.1914 -29.9316 -43.9717 -33.041c-14.792 -2.58691 -25.3496 7.24805 -28.3535 21.0967c-7.49609 34.5322 18.3896 76.0156 40.4551 100.355c18.1533 20.0234 53.4785 47.9668 82.1455 35.8096c0.458984 0.930664 0.844727 1.72363 1.12207 2.31641
c4.74707 10.1279 22.9736 5.48633 21.6484 -5.8623c-3.5459 -30.3076 -4.25 -61.0898 -4.46973 -91.5791c-0.204102 -28.3828 -3.30762 -63.2686 7.13867 -90.3486zM29.3408 43.8232c17.166 -15.9521 67.3916 69.9209 90.457 112.746
c-21.8652 6.4834 -53.1416 -27.0732 -63.8398 -41.4131c-6.875 -9.21387 -12.7275 -19.374 -17.4873 -29.8271c-2.74609 -6.03125 -15.6963 -35.4053 -9.12988 -41.5059z" />
    <glyph glyph-name="a" unicode="&#xe5;" horiz-adv-x="165" 
d="M155.36 -9.49023c6.08203 -15.7607 -19.2471 -22.5205 -25.249 -6.9668c-10.7432 27.8545 -7.2002 64.3135 -6.50586 93.4258c0.318359 13.2598 0.729492 26.5898 1.36621 39.916c-13.3359 -22.9893 -28.2305 -45.1182 -45.3262 -65.1221
c-11.0518 -12.9316 -26.1914 -29.9316 -43.9717 -33.041c-14.792 -2.58691 -25.3496 7.24805 -28.3535 21.0967c-7.49609 34.5322 18.3896 76.0156 40.4551 100.355c18.1533 20.0234 53.4785 47.9668 82.1455 35.8096c0.458984 0.930664 0.844727 1.72363 1.12207 2.31641
c4.74707 10.1279 22.9736 5.48633 21.6484 -5.8623c-3.5459 -30.3076 -4.25 -61.0898 -4.46973 -91.5791c-0.204102 -28.3828 -3.30762 -63.2686 7.13867 -90.3486zM29.3408 43.8232c17.166 -15.9521 67.3916 69.9209 90.457 112.746
c-21.8652 6.4834 -53.1416 -27.0732 -63.8398 -41.4131c-6.875 -9.21387 -12.7275 -19.374 -17.4873 -29.8271c-2.74609 -6.03125 -15.6963 -35.4053 -9.12988 -41.5059z" />
    <glyph glyph-name="a" unicode="&#xe4;" horiz-adv-x="165" 
d="M155.36 -9.49023c6.08203 -15.7607 -19.2471 -22.5205 -25.249 -6.9668c-10.7432 27.8545 -7.2002 64.3135 -6.50586 93.4258c0.318359 13.2598 0.729492 26.5898 1.36621 39.916c-13.3359 -22.9893 -28.2305 -45.1182 -45.3262 -65.1221
c-11.0518 -12.9316 -26.1914 -29.9316 -43.9717 -33.041c-14.792 -2.58691 -25.3496 7.24805 -28.3535 21.0967c-7.49609 34.5322 18.3896 76.0156 40.4551 100.355c18.1533 20.0234 53.4785 47.9668 82.1455 35.8096c0.458984 0.930664 0.844727 1.72363 1.12207 2.31641
c4.74707 10.1279 22.9736 5.48633 21.6484 -5.8623c-3.5459 -30.3076 -4.25 -61.0898 -4.46973 -91.5791c-0.204102 -28.3828 -3.30762 -63.2686 7.13867 -90.3486zM29.3408 43.8232c17.166 -15.9521 67.3916 69.9209 90.457 112.746
c-21.8652 6.4834 -53.1416 -27.0732 -63.8398 -41.4131c-6.875 -9.21387 -12.7275 -19.374 -17.4873 -29.8271c-2.74609 -6.03125 -15.6963 -35.4053 -9.12988 -41.5059z" />
    <glyph glyph-name="a" unicode="&#xe3;" horiz-adv-x="165" 
d="M155.36 -9.49023c6.08203 -15.7607 -19.2471 -22.5205 -25.249 -6.9668c-10.7432 27.8545 -7.2002 64.3135 -6.50586 93.4258c0.318359 13.2598 0.729492 26.5898 1.36621 39.916c-13.3359 -22.9893 -28.2305 -45.1182 -45.3262 -65.1221
c-11.0518 -12.9316 -26.1914 -29.9316 -43.9717 -33.041c-14.792 -2.58691 -25.3496 7.24805 -28.3535 21.0967c-7.49609 34.5322 18.3896 76.0156 40.4551 100.355c18.1533 20.0234 53.4785 47.9668 82.1455 35.8096c0.458984 0.930664 0.844727 1.72363 1.12207 2.31641
c4.74707 10.1279 22.9736 5.48633 21.6484 -5.8623c-3.5459 -30.3076 -4.25 -61.0898 -4.46973 -91.5791c-0.204102 -28.3828 -3.30762 -63.2686 7.13867 -90.3486zM29.3408 43.8232c17.166 -15.9521 67.3916 69.9209 90.457 112.746
c-21.8652 6.4834 -53.1416 -27.0732 -63.8398 -41.4131c-6.875 -9.21387 -12.7275 -19.374 -17.4873 -29.8271c-2.74609 -6.03125 -15.6963 -35.4053 -9.12988 -41.5059z" />
    <glyph glyph-name="a" unicode="&#xe2;" horiz-adv-x="165" 
d="M155.36 -9.49023c6.08203 -15.7607 -19.2471 -22.5205 -25.249 -6.9668c-10.7432 27.8545 -7.2002 64.3135 -6.50586 93.4258c0.318359 13.2598 0.729492 26.5898 1.36621 39.916c-13.3359 -22.9893 -28.2305 -45.1182 -45.3262 -65.1221
c-11.0518 -12.9316 -26.1914 -29.9316 -43.9717 -33.041c-14.792 -2.58691 -25.3496 7.24805 -28.3535 21.0967c-7.49609 34.5322 18.3896 76.0156 40.4551 100.355c18.1533 20.0234 53.4785 47.9668 82.1455 35.8096c0.458984 0.930664 0.844727 1.72363 1.12207 2.31641
c4.74707 10.1279 22.9736 5.48633 21.6484 -5.8623c-3.5459 -30.3076 -4.25 -61.0898 -4.46973 -91.5791c-0.204102 -28.3828 -3.30762 -63.2686 7.13867 -90.3486zM29.3408 43.8232c17.166 -15.9521 67.3916 69.9209 90.457 112.746
c-21.8652 6.4834 -53.1416 -27.0732 -63.8398 -41.4131c-6.875 -9.21387 -12.7275 -19.374 -17.4873 -29.8271c-2.74609 -6.03125 -15.6963 -35.4053 -9.12988 -41.5059z" />
    <glyph glyph-name="a" unicode="&#xe1;" horiz-adv-x="165" 
d="M155.36 -9.49023c6.08203 -15.7607 -19.2471 -22.5205 -25.249 -6.9668c-10.7432 27.8545 -7.2002 64.3135 -6.50586 93.4258c0.318359 13.2598 0.729492 26.5898 1.36621 39.916c-13.3359 -22.9893 -28.2305 -45.1182 -45.3262 -65.1221
c-11.0518 -12.9316 -26.1914 -29.9316 -43.9717 -33.041c-14.792 -2.58691 -25.3496 7.24805 -28.3535 21.0967c-7.49609 34.5322 18.3896 76.0156 40.4551 100.355c18.1533 20.0234 53.4785 47.9668 82.1455 35.8096c0.458984 0.930664 0.844727 1.72363 1.12207 2.31641
c4.74707 10.1279 22.9736 5.48633 21.6484 -5.8623c-3.5459 -30.3076 -4.25 -61.0898 -4.46973 -91.5791c-0.204102 -28.3828 -3.30762 -63.2686 7.13867 -90.3486zM29.3408 43.8232c17.166 -15.9521 67.3916 69.9209 90.457 112.746
c-21.8652 6.4834 -53.1416 -27.0732 -63.8398 -41.4131c-6.875 -9.21387 -12.7275 -19.374 -17.4873 -29.8271c-2.74609 -6.03125 -15.6963 -35.4053 -9.12988 -41.5059z" />
    <glyph glyph-name="b" unicode="b" horiz-adv-x="207" 
d="M143.962 205.952c48.126 -7.375 53.4258 -82.6826 50.3486 -119.741c-1.98145 -23.8652 -7.04102 -47.8613 -16.5 -69.9209c-7.63672 -17.8184 -21.7529 -41.8086 -41.9297 -47.3809c-20.6855 -5.70898 -34.2734 13.2119 -35.2393 31.6836
c-1.25488 24.0566 7.35059 48.958 19.9092 69.1211c8.64062 13.8711 30.4326 1.24219 21.9648 -12.8398c-6.16113 -10.2422 -11.0479 -20.7461 -13.7754 -32.4258c-1.41406 -6.05664 -6.84961 -38.6836 7.19336 -25.835c15.2383 13.9414 22.3018 34.9297 27.1543 54.4277
c5.45703 21.9219 7.75098 44.707 5.55566 67.2412c-1.52637 15.6777 -8.49707 64.0205 -32.4805 60.3633c-18.0703 -2.75879 -32.292 -34.2676 -38.6924 -48.9736c-8.18164 -18.7998 -13.0723 -39.0625 -16.6758 -59.1846
c-8.48047 -47.3613 -10.0801 -96.8545 -6.55664 -144.809c0.261719 -3.5459 -0.863281 -6.16113 -2.7207 -7.88184c-4.87402 -6.65234 -15.3975 -8.84375 -20.1729 0.615234c-19.8135 39.2402 -25.5605 83.1797 -30.3525 126.387
c-5.08496 45.8486 -6.6875 92.0693 -5.72559 138.176c1.93066 92.7158 14.333 185.326 32.4795 276.185c3.66016 18.3223 31.2949 10.4561 27.8896 -7.6875c-16.2803 -86.7295 -28.7471 -174.039 -31.5088 -262.346c-1.37988 -44.0703 -0.385742 -88.1436 3.33496 -132.083
c0.732422 -8.63379 1.48438 -17.3818 2.36035 -26.1689c2.125 26.876 6.60449 53.5264 13.9287 79.377c9.36621 33.0537 35.5732 100.541 80.2109 93.7012z" />
    <glyph glyph-name="c" unicode="c" horiz-adv-x="147" 
d="M117.478 65.6133c3.06445 13.5596 23.5518 7.75586 20.7354 -5.71387c-7.44531 -35.6533 -29.8486 -100.289 -77.2393 -94.2871c-46.6064 5.90332 -54.1885 75.0527 -51.4932 111.196c3.27539 43.9307 19.0547 97.7432 54.3477 126.92
c15.4678 12.7881 36.6191 16.6689 50.4111 -0.480469c14.2793 -17.7578 14.4033 -45.1436 14.999 -66.7568c0.464844 -16.8086 -25.3916 -16.6846 -26.0352 0c-0.490234 12.7881 1.40234 34.4268 -6.40332 45.3672c-7.17188 10.0547 -15.0791 3.64746 -22.1045 -3.65137
c-5.25977 -5.4668 -9.5127 -11.7559 -13.3584 -18.2676c-15.7227 -26.6279 -24.7324 -57.9834 -26.1504 -88.8359c-0.908203 -19.7363 2.45898 -85.793 35.1748 -80.1504c14.502 2.50391 23.8398 19.0801 30.3584 30.6826c7.81152 13.9033 13.25 28.4561 16.7578 43.9775z
" />
    <glyph glyph-name="d" unicode="d" horiz-adv-x="207" 
d="M213.164 -98.6289c4.28223 -16.9238 -21.668 -24.0469 -26.1055 -7.19336c-27.5967 104.583 -29.9131 211.833 -26.7305 319.262c-10.7393 -45.5264 -25.0439 -90.3936 -45.1562 -132.632c-13.2783 -27.8828 -54.8604 -103.229 -95.1719 -66.6104
c-31.9355 29.0078 -6.15527 91.0049 15.2988 118.13c19.6348 24.8242 58.2539 50.7158 86.293 34.3877c26.6113 85.0957 36.7842 174.715 46.5967 263.089c1.73926 15.6807 25.3594 16.5156 25.1113 0c-2.66309 -176.486 -23.9893 -355.005 19.8643 -528.433z
M105.565 121.164c2.99512 7.53418 5.77539 15.1299 8.46777 22.7568c-17.79 11.6289 -40.3174 -6.01465 -53.8066 -20.5234c-15.4678 -16.6396 -25.8408 -38.3516 -28.3955 -60.9971c-0.949219 -8.41113 -2.9375 -27.584 8 -31.3848
c12.9795 -4.51074 27.0576 17.2236 32.6455 25.2266c13.9258 19.9277 24.1396 42.4043 33.0889 64.9219z" />
    <glyph glyph-name="e" unicode="e" horiz-adv-x="182" 
d="M157.027 96.6982c6.93848 9.92676 22.6338 3.95117 19.7471 -8.32715c-6.93262 -29.4277 -26.6758 -58.709 -44.6533 -82.5781c-14.3623 -19.0674 -33.0605 -36.1914 -57.8242 -38.7021c-54.9375 -5.56543 -66.9961 59.7324 -65.1133 101.525
c2.20508 48.9766 20.8711 103.793 56.2949 138.901c14.6865 14.5566 35.3506 24.8945 56.2949 18.5576c19.4785 -5.89355 29.46 -25.7549 27.1758 -45.1602c-5.82422 -49.4453 -62.377 -49.7227 -100.276 -52.4629c-3.4375 -9.47461 -6.23828 -19.1885 -8.39551 -29.0264
c-5.98633 -27.2842 -12.2852 -121.096 39.3584 -104.017c18.8506 6.23438 31.5049 25.7959 41.9805 41.4229c12.9092 19.2588 22.1895 40.9512 35.4111 59.8662zM63.3545 160.194c-1.12109 -1.9375 -2.18164 -3.9043 -3.23633 -5.87598
c15.1709 0.474609 30.7246 0.350586 44.3633 7.11719c9.24902 4.58789 18.5166 12.4414 19.2783 23.4873c0.754883 10.9434 -6.64941 17.6494 -17.3574 16.4932c-19.3516 -2.09277 -34.3057 -26.1396 -43.0479 -41.2217z" />
    <glyph glyph-name="e" unicode="&#xeb;" horiz-adv-x="182" 
d="M157.027 96.6982c6.93848 9.92676 22.6338 3.95117 19.7471 -8.32715c-6.93262 -29.4277 -26.6758 -58.709 -44.6533 -82.5781c-14.3623 -19.0674 -33.0605 -36.1914 -57.8242 -38.7021c-54.9375 -5.56543 -66.9961 59.7324 -65.1133 101.525
c2.20508 48.9766 20.8711 103.793 56.2949 138.901c14.6865 14.5566 35.3506 24.8945 56.2949 18.5576c19.4785 -5.89355 29.46 -25.7549 27.1758 -45.1602c-5.82422 -49.4453 -62.377 -49.7227 -100.276 -52.4629c-3.4375 -9.47461 -6.23828 -19.1885 -8.39551 -29.0264
c-5.98633 -27.2842 -12.2852 -121.096 39.3584 -104.017c18.8506 6.23438 31.5049 25.7959 41.9805 41.4229c12.9092 19.2588 22.1895 40.9512 35.4111 59.8662zM63.3545 160.194c-1.12109 -1.9375 -2.18164 -3.9043 -3.23633 -5.87598
c15.1709 0.474609 30.7246 0.350586 44.3633 7.11719c9.24902 4.58789 18.5166 12.4414 19.2783 23.4873c0.754883 10.9434 -6.64941 17.6494 -17.3574 16.4932c-19.3516 -2.09277 -34.3057 -26.1396 -43.0479 -41.2217z" />
    <glyph glyph-name="e" unicode="&#xea;" horiz-adv-x="182" 
d="M157.027 96.6982c6.93848 9.92676 22.6338 3.95117 19.7471 -8.32715c-6.93262 -29.4277 -26.6758 -58.709 -44.6533 -82.5781c-14.3623 -19.0674 -33.0605 -36.1914 -57.8242 -38.7021c-54.9375 -5.56543 -66.9961 59.7324 -65.1133 101.525
c2.20508 48.9766 20.8711 103.793 56.2949 138.901c14.6865 14.5566 35.3506 24.8945 56.2949 18.5576c19.4785 -5.89355 29.46 -25.7549 27.1758 -45.1602c-5.82422 -49.4453 -62.377 -49.7227 -100.276 -52.4629c-3.4375 -9.47461 -6.23828 -19.1885 -8.39551 -29.0264
c-5.98633 -27.2842 -12.2852 -121.096 39.3584 -104.017c18.8506 6.23438 31.5049 25.7959 41.9805 41.4229c12.9092 19.2588 22.1895 40.9512 35.4111 59.8662zM63.3545 160.194c-1.12109 -1.9375 -2.18164 -3.9043 -3.23633 -5.87598
c15.1709 0.474609 30.7246 0.350586 44.3633 7.11719c9.24902 4.58789 18.5166 12.4414 19.2783 23.4873c0.754883 10.9434 -6.64941 17.6494 -17.3574 16.4932c-19.3516 -2.09277 -34.3057 -26.1396 -43.0479 -41.2217z" />
    <glyph glyph-name="e" unicode="&#xe9;" horiz-adv-x="182" 
d="M157.027 96.6982c6.93848 9.92676 22.6338 3.95117 19.7471 -8.32715c-6.93262 -29.4277 -26.6758 -58.709 -44.6533 -82.5781c-14.3623 -19.0674 -33.0605 -36.1914 -57.8242 -38.7021c-54.9375 -5.56543 -66.9961 59.7324 -65.1133 101.525
c2.20508 48.9766 20.8711 103.793 56.2949 138.901c14.6865 14.5566 35.3506 24.8945 56.2949 18.5576c19.4785 -5.89355 29.46 -25.7549 27.1758 -45.1602c-5.82422 -49.4453 -62.377 -49.7227 -100.276 -52.4629c-3.4375 -9.47461 -6.23828 -19.1885 -8.39551 -29.0264
c-5.98633 -27.2842 -12.2852 -121.096 39.3584 -104.017c18.8506 6.23438 31.5049 25.7959 41.9805 41.4229c12.9092 19.2588 22.1895 40.9512 35.4111 59.8662zM63.3545 160.194c-1.12109 -1.9375 -2.18164 -3.9043 -3.23633 -5.87598
c15.1709 0.474609 30.7246 0.350586 44.3633 7.11719c9.24902 4.58789 18.5166 12.4414 19.2783 23.4873c0.754883 10.9434 -6.64941 17.6494 -17.3574 16.4932c-19.3516 -2.09277 -34.3057 -26.1396 -43.0479 -41.2217z" />
    <glyph glyph-name="f" unicode="f" horiz-adv-x="149" 
d="M136.404 99.9355c16.0664 1.23633 15.9365 -23.7617 -0.00292969 -24.9854c-17.749 -1.36719 -35.249 -4.21875 -52.418 -8.36328c0.201172 -24.2764 0.539062 -48.5498 0.96582 -72.8232c2.19141 -7.89453 3.88965 -15.9229 5.41895 -23.7891
c9.08301 -46.6699 8.96484 -94.4805 0.0507812 -141.15c-3.24316 -16.9775 -25.8945 -10.5264 -27.5547 3.72754c-6.26953 53.8164 -5.33301 108.827 -5.59766 163.105c-2.01953 5.89746 -4.45703 11.5684 -7.63379 16.71
c-9.77734 15.834 -26.3252 23.7607 -42.4971 31.5664c-8.13672 3.92773 -8.21973 17.71 0 21.6094c16.1943 7.68457 32.7383 14.1074 49.6104 19.3037c-0.00976562 36.1699 0.308594 72.3428 1.3125 108.499c1.67871 60.4365 5.13867 120.863 11.3125 181.013
c1.9209 18.7139 1.3252 44.0859 17.9141 56.6924c12.7725 9.7041 32.4355 7.21582 40.2471 -7.42969c6.45117 -12.0938 -11.3867 -22.582 -18.3955 -10.7529c-6.72852 11.3574 -13.0459 -21.9131 -13.1602 -22.9551c-1.36035 -12.4277 -2.42773 -24.8975 -3.4668 -37.3574
c-1.99121 -23.8818 -3.57129 -47.7949 -4.80078 -71.7275c-2.56738 -49.9707 -3.64453 -100.021 -3.88379 -150.06c-0.0605469 -12.9092 -0.0605469 -25.8184 -0.0126953 -38.7246c17.21 3.87402 34.7383 6.51855 52.5918 7.8916zM42.2773 53.5352
c5.16406 -3.18555 10.082 -6.69727 14.6221 -10.6797c-0.0380859 5.30469 -0.0917969 10.6123 -0.117188 15.917c-4.87109 -1.63086 -9.70703 -3.37695 -14.5049 -5.2373z" />
    <glyph glyph-name="g" unicode="g" horiz-adv-x="205" 
d="M188.039 134.862c1.8125 -31.3174 2.01758 -62.7471 0.803711 -94.0898c-2.07715 -53.6279 -7.60156 -107.852 -20.3516 -160.071c-10.873 -44.5322 -26.5791 -95.918 -60.875 -128.421c-13.7754 -13.0557 -33.4482 -26.2227 -53.4111 -20.8955
c-20.7119 5.52734 -27.1533 28.2617 -27.3408 47.1924c-0.47168 47.9033 25.0156 97.5176 54.4785 133.789c9.55176 11.7588 29.9443 -4.1416 20.9541 -16.165c-15.6367 -20.9092 -28.9697 -43.5518 -37.6514 -68.2549
c-4.48535 -12.7656 -23.2471 -79.1309 6.13672 -68.5254c21.1543 7.63672 35.6152 32.3848 45.0518 51.376c11.6475 23.4385 19.6855 48.8301 26.1436 74.1328c14.0049 54.8672 19.6055 111.895 21.3545 168.387c1.2041 38.8809 3.48535 82.4512 -3.49805 122.536
c-11.6318 -31.3555 -25.1338 -62.083 -44.3896 -89.4717c-17.4902 -24.875 -52.6182 -70.6719 -88.0293 -63.0293c-42.4297 9.15625 -17.2578 60.9082 -1.65039 82.8203c22.0371 30.9385 53.7148 51.5479 90.6143 60.0381c5.18652 1.19141 9.2168 -1.10547 11.4883 -4.57129
c8.0957 19.5391 15.0215 39.5654 21.6572 59.0381c4.11621 12.0713 19.4307 11.2969 23.8018 0c10.6123 -27.4307 13.0273 -56.6895 14.7129 -85.8145zM55.9307 57.7881c29.3008 22.8301 49.166 53.7363 64.5986 87.0732
c-26.2393 -6.53711 -49.8623 -21.5908 -67.4736 -42.1172c-9.2168 -10.7393 -16.751 -23.2275 -21.7109 -36.4932c-2.55859 -6.84375 -6.07227 -17.6221 3.83301 -18.916c7.19727 -0.939453 15.4482 6.32129 20.7529 10.4531z" />
    <glyph glyph-name="h" unicode="h" horiz-adv-x="182" 
d="M175.822 -42.6777c3.55273 -17.0029 -22.5088 -24.209 -26.0645 -7.18652c-13.6865 65.4961 -2.10254 132.384 -11.9912 198.103c-0.178711 1.18555 -2.20508 8.17578 -0.743164 7.96875c-1.57031 0.219727 -7.0625 -8.80566 -7.77344 -9.88867
c-3.88379 -5.90625 -7.10449 -12.2559 -10.083 -18.6562c-7.28613 -15.6553 -13.2783 -31.9893 -19.0381 -48.2529c-10.9121 -30.8047 -20.0938 -62.1699 -30.5244 -93.1338c-0.598633 -1.77441 -1.49023 -3.18262 -2.55469 -4.30762
c-1.25879 -7.1748 -9.38965 -13.457 -18.2588 -9.50293c-11.7021 5.21484 -15.79 16.7988 -18.2529 28.5264c-3.77539 17.9941 -6.375 36.291 -8.66211 54.5273c-4.53027 36.1348 -6.70898 72.6201 -6.8623 109.031c-0.267578 62.998 3.14746 128.758 18.8154 190.02
c6.91309 27.0293 16.3398 56.5176 33.8428 78.7012c13.8457 17.5508 42.4746 32.6963 58.0918 8.04395c14.0879 -22.2412 9.95605 -56.7822 6.68457 -81.2783c-4.39355 -32.917 -12.8262 -64.9961 -22.1104 -96.8262c-18.6436 -63.9121 -37.8955 -127.882 -60.8057 -190.411
c-0.436523 -1.19141 -0.994141 -2.24316 -1.63086 -3.18652c0.0703125 -0.678711 0.118164 -1.35742 0.185547 -2.0332c1.50684 -14.8945 3.32324 -29.7539 5.53711 -44.5586c0.3125 -2.07422 0.491211 -5.39062 0.803711 -9.08008
c8.93945 33.8154 19.3926 67.2988 32.0469 99.8838c8.06641 20.7656 26.376 77.9561 57.8398 68.6631c14.2852 -4.21777 16.9902 -19.8223 18.7363 -32.5527c2.97852 -21.7217 4.02344 -43.583 4.41895 -65.4863c0.767578 -42.5791 -0.408203 -85.2061 8.35254 -127.126z
M43.4883 146.322c0.0410156 -2.46875 0.138672 -4.9375 0.199219 -7.41016c12.3936 37.832 24.2422 75.8301 35.5557 114.032c14.4922 48.9385 34.665 104.966 27.6143 156.714c-0.949219 6.97754 -0.84375 18.0615 -10.9238 12.623
c-4.33594 -2.33887 -7.99609 -9.48438 -10.5254 -13.5498c-6.59473 -10.5967 -11.3262 -22.4102 -15.4521 -34.1338c-8.02539 -22.7949 -13.2754 -46.5107 -16.9707 -70.3701c-8.05371 -52.0254 -10.373 -105.319 -9.49707 -157.905z" />
    <glyph glyph-name="i" unicode="i" horiz-adv-x="64" 
d="M59.6309 -33.2412c4.14844 -13.1611 -13.333 -17.792 -20.3799 -8.59473c-21.5713 28.1504 -21.9697 71.667 -23.4834 105.482c-1.88574 42.1562 0.0517578 84.3984 2.06543 126.507c0.895508 18.7139 30.0176 18.7773 29.1699 0
c-3.36133 -74.5049 -10.0488 -151.432 12.6279 -223.395zM45.7275 235.159c-1.90527 -14.8428 -21.3135 -14.8818 -23.1484 -0.000976562c-2.19531 17.79 0.729492 36.4658 4.81055 53.7871c3.9375 16.7041 29.9346 9.58008 25.7295 -7.09473
c-3.89941 -15.4736 -5.36816 -30.9248 -7.3916 -46.6914z" />
    <glyph glyph-name="i" unicode="&#xef;" horiz-adv-x="64" 
d="M59.6309 -33.2412c4.14844 -13.1611 -13.333 -17.792 -20.3799 -8.59473c-21.5713 28.1504 -21.9697 71.667 -23.4834 105.482c-1.88574 42.1562 0.0517578 84.3984 2.06543 126.507c0.895508 18.7139 30.0176 18.7773 29.1699 0
c-3.36133 -74.5049 -10.0488 -151.432 12.6279 -223.395zM45.7275 235.159c-1.90527 -14.8428 -21.3135 -14.8818 -23.1484 -0.000976562c-2.19531 17.79 0.729492 36.4658 4.81055 53.7871c3.9375 16.7041 29.9346 9.58008 25.7295 -7.09473
c-3.89941 -15.4736 -5.36816 -30.9248 -7.3916 -46.6914z" />
    <glyph glyph-name="i" unicode="&#xee;" horiz-adv-x="64" 
d="M59.6309 -33.2412c4.14844 -13.1611 -13.333 -17.792 -20.3799 -8.59473c-21.5713 28.1504 -21.9697 71.667 -23.4834 105.482c-1.88574 42.1562 0.0517578 84.3984 2.06543 126.507c0.895508 18.7139 30.0176 18.7773 29.1699 0
c-3.36133 -74.5049 -10.0488 -151.432 12.6279 -223.395zM45.7275 235.159c-1.90527 -14.8428 -21.3135 -14.8818 -23.1484 -0.000976562c-2.19531 17.79 0.729492 36.4658 4.81055 53.7871c3.9375 16.7041 29.9346 9.58008 25.7295 -7.09473
c-3.89941 -15.4736 -5.36816 -30.9248 -7.3916 -46.6914z" />
    <glyph glyph-name="i" unicode="&#xed;" horiz-adv-x="64" 
d="M59.6309 -33.2412c4.14844 -13.1611 -13.333 -17.792 -20.3799 -8.59473c-21.5713 28.1504 -21.9697 71.667 -23.4834 105.482c-1.88574 42.1562 0.0517578 84.3984 2.06543 126.507c0.895508 18.7139 30.0176 18.7773 29.1699 0
c-3.36133 -74.5049 -10.0488 -151.432 12.6279 -223.395zM45.7275 235.159c-1.90527 -14.8428 -21.3135 -14.8818 -23.1484 -0.000976562c-2.19531 17.79 0.729492 36.4658 4.81055 53.7871c3.9375 16.7041 29.9346 9.58008 25.7295 -7.09473
c-3.89941 -15.4736 -5.36816 -30.9248 -7.3916 -46.6914z" />
    <glyph glyph-name="j" unicode="j" horiz-adv-x="62" 
d="M36.4111 189.631c16.1172 -95.3408 16.6455 -196.312 1.47461 -291.764c-5.53027 -34.8125 -15.4736 -87.9688 -52.8281 -102.99c-41.21 -16.5732 -70.4561 23.3652 -85.5605 55.5273c-7.70996 16.4141 16.4609 30.8457 24.5439 14.3457
c7.33691 -14.9805 15.3398 -33.8408 31.25 -41.5664c18.3447 -8.9082 30.6201 5.22461 38.2568 20.5391c16.4805 33.0469 19.7842 73.6416 23.3809 109.827c7.76758 78.0986 2.8457 155.099 -2.51953 233.103c-0.863281 12.5684 19.9092 15.3623 22.002 2.97852z
M31.0869 232.529c-0.688477 -11.7754 -18.0342 -15.0244 -21.1211 -2.85742c-4.40918 17.3887 -4.32031 36.1855 -4.1582 54.0166c0.149414 16.3115 25.834 16.248 25.2891 0c-0.570312 -17.0283 0.984375 -34.1748 -0.00976562 -51.1592z" />
    <glyph glyph-name="k" unicode="k" horiz-adv-x="183" 
d="M176.212 171.898c18.0195 -22.2412 -32.2949 -59.6621 -46.1953 -71.0518c-12.4668 -10.2207 -25.9785 -21.1484 -40.3086 -30.8076c12.6992 -1.75195 25.3438 -3.85449 37.9277 -6.32324c17.0479 -3.34473 9.79004 -29.3545 -7.17188 -26.0156
c-14.2119 2.79688 -28.4814 5.24316 -42.8662 6.96973c-8.48047 1.0166 -20.4336 3.79785 -30.4502 3.08105c2.46582 -50.9424 6.39062 -101.792 12.8965 -152.454c2.32617 -18.1113 -26.0312 -17.8242 -28.373 0.000976562
c-6.7793 51.5928 -10.3408 103.469 -12.2559 155.431c-2.56738 4.15723 -3.09277 9.37598 -0.451172 13.4727c-1.12793 35.6729 -1.55176 71.377 -1.76562 107.046c-0.554688 92.834 0.0126953 185.521 2.1377 278.323c0.322266 14.0273 22.0625 14.04 21.8047 0
c-1.70801 -92.6846 0.802734 -185.646 2.30664 -278.323c0.401367 -24.7158 0.943359 -49.4316 1.73633 -74.1318c15.5537 19.6855 33.6309 37.1094 54.0625 52.1025c15.0059 11.0107 59.3506 44.4209 76.9658 22.6807zM64.2217 85.4395
c12.8389 7.58594 25.0137 16.6201 36.2979 24.9102c12.0518 8.85059 23.8047 18.2998 34.7002 28.5557c3.07422 2.89258 8.95215 7.94531 13.626 13.043c-8.13379 -3.9541 -18.376 -10.2275 -20.7529 -11.6865c-10.7588 -6.61035 -21.0459 -13.96 -30.709 -22.0908
c-11.9277 -10.0322 -22.9863 -20.9883 -33.1621 -32.7314z" />
    <glyph glyph-name="l" unicode="l" horiz-adv-x="100" 
d="M133.353 -81.8838c13.1318 0.509766 16.0225 -20.3428 3.10352 -22.9775c-43.5635 -8.88574 -69.1592 39.3457 -83.457 72.708c-17.9043 41.7705 -26.1211 86.8545 -32.2383 131.658c-11.8867 87.0576 -11.5264 175.215 0.140625 262.275
c5.09766 38.0303 11.9795 76.1396 26.2842 111.914c9.21387 23.04 30.3779 78.5322 64.6514 66.9834c32.3018 -10.8828 26.6211 -63.335 24.4482 -88.9492c-3.66699 -43.207 -12.1543 -85.8154 -21.291 -128.146c-19.0547 -88.291 -37.9785 -176.639 -57.8584 -264.744
c-0.15625 -0.681641 -0.398438 -1.26465 -0.621094 -1.87012c4.0752 -21.2217 9.2207 -42.2451 16.3096 -62.6191c8.74805 -25.1465 27.4619 -77.5127 60.5283 -76.2324zM45.5762 132.383c13.2246 61.2617 26.8047 122.448 40.0898 183.697
c7.44238 34.2998 14.9004 68.6729 19.7617 103.453c2.68555 19.2109 4.79492 38.7275 5.0625 58.1396c0.118164 8.37891 0.00390625 17.0537 -2.37891 25.1582c-2.16016 7.34375 -1.55762 12.2754 -8.26074 7.44238c-6.33691 -4.56836 -10.918 -16.168 -14.5312 -22.9062
c-3.72461 -6.95117 -7.12402 -14.0967 -10.1064 -21.3984c-6.25684 -15.3271 -10.9785 -31.3076 -14.8457 -47.3896c-8.10156 -33.7002 -12.5205 -68.3213 -15.5977 -102.803c-5.43164 -60.8828 -5.4248 -122.508 0.806641 -183.394z" />
    <glyph glyph-name="m" unicode="m" horiz-adv-x="278" 
d="M293.016 -100.337c15.7129 -9.13379 1.66992 -33.0635 -14.2217 -24.3281c-17.7549 9.76465 -24.3652 28.001 -29.1123 46.667c-5.63867 22.1865 -9.05078 44.9365 -11.4023 67.6904c-4.89062 47.3105 -4.1416 94.959 -5.86523 142.432
c-0.429688 11.8389 -0.725586 23.792 -1.85352 35.5898c-0.414062 4.33887 0.130859 12.543 -2.79395 16.251c3.11914 2.90234 2.58984 2.50391 -1.58984 -1.19531c-1.03516 -1.26465 -2.07031 -2.5293 -3.10547 -3.79102
c-14.4316 -17.8057 -25.4326 -40.2373 -36.0098 -60.4609c-11.0068 -21.0527 -20.8604 -42.6914 -29.3447 -64.8809c-7.8916 -20.6387 -13.3838 -42.5986 -25.5664 -61.2646c-4.97363 -7.62109 -14.9268 -9.03906 -21.6748 -2.79492
c-14.2471 13.1865 -7.64551 41.1074 -7.26953 58.2129c0.290039 13.2822 0.640625 26.5605 0.870117 39.8428c0.0703125 4.18262 0.640625 10.6113 0.637695 16.9893c-5.97656 -10.5801 -10.4912 -24.127 -13.5244 -31.7734
c-6.15527 -15.5156 -11.2148 -31.4326 -16.5195 -47.2471c-5.25684 -15.6777 -14.9609 -67.3184 -40.6172 -57.6553c-13.9355 5.24707 -13.9385 23.6934 -15.627 36.0391c-2.43359 17.8057 -4.12891 35.6943 -4.90332 53.6504
c-1.58984 36.8164 0.414062 73.7471 6.66504 110.069c2.08008 12.084 22.5752 9.19727 21.3643 -2.89355c-2.95312 -29.5361 -4.77832 -59.0791 -3.81348 -88.7715c0.5 -15.3496 1.6123 -30.6865 3.40625 -45.9434c0.47168 -4.02344 0.742188 -9.02539 1.16309 -14.2598
c1.71387 4.84277 3.4248 9.68555 5.0625 14.5537c4.48242 13.3359 8.76758 26.7422 13.6104 39.9512c7.91406 21.5938 17.8633 53.9717 36.6758 68.624c8.49707 6.61426 20.5654 6.4873 27.1924 -2.57031c6.61426 -9.04199 6.4873 -23.5342 6.8125 -34.3125
c0.426758 -14.126 -0.207031 -28.332 -0.602539 -42.4775c2.35449 6.82129 4.7666 13.5752 7.48438 20.0869c9.33105 22.3613 19.7266 44.248 31.4248 65.4727c10.7617 19.5264 54.1729 104.061 81.2207 54.0645c10.752 -19.874 8.32422 -48.2822 9.08203 -70.0801
c0.933594 -26.7773 1.15625 -53.5703 2.15625 -80.3447c0.984375 -26.3125 2.49414 -52.7236 6.42871 -78.7842c2.05469 -13.6104 4.68262 -27.1631 8.12012 -40.4961c2.84473 -11.0195 5.46973 -23.7188 16.04 -29.8613z" />
    <glyph glyph-name="n" unicode="n" horiz-adv-x="181" 
d="M193.521 -103.994c4.43457 -14.0371 -18.0059 -23.7441 -23.9697 -10.1113c-20.3965 46.6064 -26.1152 99.1387 -30.2949 149.377c-2.15723 25.9492 -3.62891 51.9492 -5.77344 77.8984c-1.1084 13.4287 -2.37012 26.8545 -4.02344 40.2285
c-0.646484 5.21484 -1.46875 26.376 -5.69629 34.666c-11.4951 -10.6475 -19.0586 -32.8564 -24.0791 -44.8672c-7.3623 -17.6152 -13.4824 -35.7432 -18.7236 -54.0967c-5.41309 -18.9434 -9.85449 -38.1641 -13.6582 -57.4932
c-3.15039 -16.0127 -5.01758 -32.168 -14.4922 -45.8994c-3.89355 -5.64551 -11.6738 -8.74902 -17.9658 -4.71289c-11.5615 7.42285 -11.8096 18.793 -12.8418 31.4346c-1.50977 18.4814 -2.85742 36.9785 -4.03613 55.4883
c-2.42773 38.0527 -3.56836 76.1748 -4.9541 114.275c-0.506836 13.9697 21.0811 13.877 21.6543 -0.000976562c1.27734 -30.9443 3.51074 -61.8096 6.07812 -92.6748c1.08984 -13.1318 2.22363 -26.2607 3.42188 -39.3838c1.61816 7.74512 3.32227 15.4707 5.19922 23.1582
c6.06641 24.8467 13.5117 49.3848 23.0498 73.1289c8.83496 21.999 18.4502 47.1553 36.2207 63.6836c14.085 13.1006 30.7061 6.53125 38.2695 -9.65039c9.92383 -21.2305 9.96875 -49.8682 12.1572 -72.8799c2.46875 -25.9297 4.01367 -51.9326 6.00781 -77.9004
c4.06836 -52.9971 12.4375 -102.98 28.4502 -153.668z" />
    <glyph glyph-name="o" unicode="o" horiz-adv-x="163" 
d="M144.456 116.308c9.58301 1.47461 16.4727 -13.7207 6.58984 -20.7236c-2.4502 -1.7334 -5.07812 -3.24707 -7.79883 -4.62988c-2.37012 -29.7217 -7.92285 -60.0322 -19.1279 -87.5645c-9.22949 -22.6807 -27.8252 -54.043 -56.7949 -50.0635
c-28.5107 3.91211 -38.3906 37.8701 -41.5762 61.9463c-3.89941 29.4697 0.981445 59.0859 7.43652 87.9121c-12.1572 11.2969 -20.0039 26.7227 -22.3359 44.7266c-3.54297 27.3545 4.24316 56.1582 19.2617 79.125c12.6826 19.3926 34.9775 44.6377 61.1084 37.5908
c27.2207 -7.33984 38.4736 -42.5889 44.4092 -66.6426c6.53125 -26.4746 9.21387 -54.2744 8.82812 -81.6768zM96.6318 8.9375c10.3164 22.5088 16.4248 47.8691 19.1484 73.8281c-17.6816 -2.42773 -36.5322 -0.675781 -51.9707 3.58105
c-1.96875 0.544922 -3.88379 1.16309 -5.76074 1.83496c-4.91309 -23.4287 -8.52246 -47.5137 -4.90918 -71.2012c1.47461 -9.65918 4.56445 -31.1162 14.915 -35.2861c13.3359 -5.37109 24.5283 18.4082 28.5771 27.2432zM117.335 106.771
c0.65625 24.2354 -1.37305 48.3945 -5.55566 70.6699c-2.87695 15.3174 -13.5625 71.4971 -38.1318 57.1348c-19.7559 -11.5459 -32.2832 -40.123 -35.5039 -61.7295c-2.64453 -17.749 0.432617 -36.208 11.7812 -48.7666
c5.16406 -0.713867 10.0859 -4.07812 11.9053 -9.25195c1.42773 -0.751953 2.92188 -1.44629 4.49219 -2.07031c13.0557 -5.20898 33.5186 -8.23535 51.0127 -5.98633z" />
    <glyph glyph-name="o" unicode="&#xf6;" horiz-adv-x="163" 
d="M144.456 116.308c9.58301 1.47461 16.4727 -13.7207 6.58984 -20.7236c-2.4502 -1.7334 -5.07812 -3.24707 -7.79883 -4.62988c-2.37012 -29.7217 -7.92285 -60.0322 -19.1279 -87.5645c-9.22949 -22.6807 -27.8252 -54.043 -56.7949 -50.0635
c-28.5107 3.91211 -38.3906 37.8701 -41.5762 61.9463c-3.89941 29.4697 0.981445 59.0859 7.43652 87.9121c-12.1572 11.2969 -20.0039 26.7227 -22.3359 44.7266c-3.54297 27.3545 4.24316 56.1582 19.2617 79.125c12.6826 19.3926 34.9775 44.6377 61.1084 37.5908
c27.2207 -7.33984 38.4736 -42.5889 44.4092 -66.6426c6.53125 -26.4746 9.21387 -54.2744 8.82812 -81.6768zM96.6318 8.9375c10.3164 22.5088 16.4248 47.8691 19.1484 73.8281c-17.6816 -2.42773 -36.5322 -0.675781 -51.9707 3.58105
c-1.96875 0.544922 -3.88379 1.16309 -5.76074 1.83496c-4.91309 -23.4287 -8.52246 -47.5137 -4.90918 -71.2012c1.47461 -9.65918 4.56445 -31.1162 14.915 -35.2861c13.3359 -5.37109 24.5283 18.4082 28.5771 27.2432zM117.335 106.771
c0.65625 24.2354 -1.37305 48.3945 -5.55566 70.6699c-2.87695 15.3174 -13.5625 71.4971 -38.1318 57.1348c-19.7559 -11.5459 -32.2832 -40.123 -35.5039 -61.7295c-2.64453 -17.749 0.432617 -36.208 11.7812 -48.7666
c5.16406 -0.713867 10.0859 -4.07812 11.9053 -9.25195c1.42773 -0.751953 2.92188 -1.44629 4.49219 -2.07031c13.0557 -5.20898 33.5186 -8.23535 51.0127 -5.98633z" />
    <glyph glyph-name="o" unicode="&#xf5;" horiz-adv-x="163" 
d="M144.456 116.308c9.58301 1.47461 16.4727 -13.7207 6.58984 -20.7236c-2.4502 -1.7334 -5.07812 -3.24707 -7.79883 -4.62988c-2.37012 -29.7217 -7.92285 -60.0322 -19.1279 -87.5645c-9.22949 -22.6807 -27.8252 -54.043 -56.7949 -50.0635
c-28.5107 3.91211 -38.3906 37.8701 -41.5762 61.9463c-3.89941 29.4697 0.981445 59.0859 7.43652 87.9121c-12.1572 11.2969 -20.0039 26.7227 -22.3359 44.7266c-3.54297 27.3545 4.24316 56.1582 19.2617 79.125c12.6826 19.3926 34.9775 44.6377 61.1084 37.5908
c27.2207 -7.33984 38.4736 -42.5889 44.4092 -66.6426c6.53125 -26.4746 9.21387 -54.2744 8.82812 -81.6768zM96.6318 8.9375c10.3164 22.5088 16.4248 47.8691 19.1484 73.8281c-17.6816 -2.42773 -36.5322 -0.675781 -51.9707 3.58105
c-1.96875 0.544922 -3.88379 1.16309 -5.76074 1.83496c-4.91309 -23.4287 -8.52246 -47.5137 -4.90918 -71.2012c1.47461 -9.65918 4.56445 -31.1162 14.915 -35.2861c13.3359 -5.37109 24.5283 18.4082 28.5771 27.2432zM117.335 106.771
c0.65625 24.2354 -1.37305 48.3945 -5.55566 70.6699c-2.87695 15.3174 -13.5625 71.4971 -38.1318 57.1348c-19.7559 -11.5459 -32.2832 -40.123 -35.5039 -61.7295c-2.64453 -17.749 0.432617 -36.208 11.7812 -48.7666
c5.16406 -0.713867 10.0859 -4.07812 11.9053 -9.25195c1.42773 -0.751953 2.92188 -1.44629 4.49219 -2.07031c13.0557 -5.20898 33.5186 -8.23535 51.0127 -5.98633z" />
    <glyph glyph-name="o" unicode="&#xf4;" horiz-adv-x="163" 
d="M144.456 116.308c9.58301 1.47461 16.4727 -13.7207 6.58984 -20.7236c-2.4502 -1.7334 -5.07812 -3.24707 -7.79883 -4.62988c-2.37012 -29.7217 -7.92285 -60.0322 -19.1279 -87.5645c-9.22949 -22.6807 -27.8252 -54.043 -56.7949 -50.0635
c-28.5107 3.91211 -38.3906 37.8701 -41.5762 61.9463c-3.89941 29.4697 0.981445 59.0859 7.43652 87.9121c-12.1572 11.2969 -20.0039 26.7227 -22.3359 44.7266c-3.54297 27.3545 4.24316 56.1582 19.2617 79.125c12.6826 19.3926 34.9775 44.6377 61.1084 37.5908
c27.2207 -7.33984 38.4736 -42.5889 44.4092 -66.6426c6.53125 -26.4746 9.21387 -54.2744 8.82812 -81.6768zM96.6318 8.9375c10.3164 22.5088 16.4248 47.8691 19.1484 73.8281c-17.6816 -2.42773 -36.5322 -0.675781 -51.9707 3.58105
c-1.96875 0.544922 -3.88379 1.16309 -5.76074 1.83496c-4.91309 -23.4287 -8.52246 -47.5137 -4.90918 -71.2012c1.47461 -9.65918 4.56445 -31.1162 14.915 -35.2861c13.3359 -5.37109 24.5283 18.4082 28.5771 27.2432zM117.335 106.771
c0.65625 24.2354 -1.37305 48.3945 -5.55566 70.6699c-2.87695 15.3174 -13.5625 71.4971 -38.1318 57.1348c-19.7559 -11.5459 -32.2832 -40.123 -35.5039 -61.7295c-2.64453 -17.749 0.432617 -36.208 11.7812 -48.7666
c5.16406 -0.713867 10.0859 -4.07812 11.9053 -9.25195c1.42773 -0.751953 2.92188 -1.44629 4.49219 -2.07031c13.0557 -5.20898 33.5186 -8.23535 51.0127 -5.98633z" />
    <glyph glyph-name="o" unicode="&#xf3;" horiz-adv-x="163" 
d="M144.456 116.308c9.58301 1.47461 16.4727 -13.7207 6.58984 -20.7236c-2.4502 -1.7334 -5.07812 -3.24707 -7.79883 -4.62988c-2.37012 -29.7217 -7.92285 -60.0322 -19.1279 -87.5645c-9.22949 -22.6807 -27.8252 -54.043 -56.7949 -50.0635
c-28.5107 3.91211 -38.3906 37.8701 -41.5762 61.9463c-3.89941 29.4697 0.981445 59.0859 7.43652 87.9121c-12.1572 11.2969 -20.0039 26.7227 -22.3359 44.7266c-3.54297 27.3545 4.24316 56.1582 19.2617 79.125c12.6826 19.3926 34.9775 44.6377 61.1084 37.5908
c27.2207 -7.33984 38.4736 -42.5889 44.4092 -66.6426c6.53125 -26.4746 9.21387 -54.2744 8.82812 -81.6768zM96.6318 8.9375c10.3164 22.5088 16.4248 47.8691 19.1484 73.8281c-17.6816 -2.42773 -36.5322 -0.675781 -51.9707 3.58105
c-1.96875 0.544922 -3.88379 1.16309 -5.76074 1.83496c-4.91309 -23.4287 -8.52246 -47.5137 -4.90918 -71.2012c1.47461 -9.65918 4.56445 -31.1162 14.915 -35.2861c13.3359 -5.37109 24.5283 18.4082 28.5771 27.2432zM117.335 106.771
c0.65625 24.2354 -1.37305 48.3945 -5.55566 70.6699c-2.87695 15.3174 -13.5625 71.4971 -38.1318 57.1348c-19.7559 -11.5459 -32.2832 -40.123 -35.5039 -61.7295c-2.64453 -17.749 0.432617 -36.208 11.7812 -48.7666
c5.16406 -0.713867 10.0859 -4.07812 11.9053 -9.25195c1.42773 -0.751953 2.92188 -1.44629 4.49219 -2.07031c13.0557 -5.20898 33.5186 -8.23535 51.0127 -5.98633z" />
    <glyph glyph-name="p" unicode="p" horiz-adv-x="225" 
d="M220.167 208.59c6.46387 -23.7891 -7.95605 -52.2529 -20.5342 -71.4736c-24.8438 -37.9502 -57.7227 -70.9111 -94.083 -98.3262c-4.47949 -21.333 -7.88184 -42.8828 -10.583 -64.2412c-6.70312 -52.9785 -8.98145 -106.394 -11.0938 -159.716
c-1.05762 -26.7588 -2.04883 -53.5205 -3.53027 -80.2598c-1 -18.0518 3.10352 -50.5068 -11.5264 -63.9355c-7.56055 -6.93848 -18.208 -3.50098 -21.6133 5.70898c-6.99902 18.918 -7.9707 39.0625 -9.56348 58.9932c-1.67871 21.0176 -3.25293 42.0479 -4.73145 63.084
c-3.0293 43.1182 -5.59668 86.2715 -7.93164 129.438c-4.72461 87.3887 -8.46484 174.832 -11.9629 262.278c-0.621094 15.5156 23.3145 15.3916 24.0439 0.000976562c4.04883 -85.3311 7.86523 -170.675 12.7588 -255.965
c2.36035 -41.168 5.00488 -82.3203 7.90039 -123.453c1.14062 29.0967 2.30664 58.1934 4.18359 87.252c2.59375 40.2061 6.51855 80.543 13.4922 120.297c-13.7061 -4.79785 -24.8379 16.71 -10.8418 25.6689c6.20898 3.97266 12.418 8.15918 18.5889 12.5176
c1.98828 8.56348 4.13281 17.0918 6.4873 25.5723c13.6807 49.2793 34.6025 106.539 77.8447 137.768c17.0322 12.3008 45.9824 13.4951 52.6953 -11.208zM183.917 161.746c4.16406 7.4043 15.9727 28.7744 11.1934 37.7559
c-5.27539 9.9209 -21.3359 -8.35352 -26.7969 -14.2441c-16.1943 -17.4619 -28.0176 -38.8867 -37.0684 -60.793c-5.65527 -13.6895 -10.5137 -27.7549 -14.748 -42.0439c26.7168 22.9795 50.7197 49.6299 67.4199 79.3252z" />
    <glyph glyph-name="q" unicode="q" horiz-adv-x="164" 
d="M204.886 -135.537c18.5674 -37.2363 14.4531 -102.549 -29.2734 -121.581c-50.7422 -22.0938 -78.708 46.4766 -83.9141 84.2393c-3.2627 23.6621 -3.84277 47.5244 -2.83887 71.3896c-12.626 1.65039 -25.1787 3.10645 -36.8105 5.47949
c-13.3486 2.7207 -13.0586 23.792 0 26.6973c13.2695 2.9502 26.5645 5.76953 39.8721 8.52539c2.28418 21.7568 5.40918 43.4277 8.59473 64.8525c5.24707 35.29 11.5205 70.4111 17.7715 105.535c-10.0391 -15.3438 -20.7754 -30.2314 -32.3086 -44.5586
c-13.209 -16.4102 -59.8223 -72.1953 -77.8447 -31.123c-12.5615 28.6289 15.5791 70.8516 32.6172 91.9326c19.5967 24.248 51.1943 57.4199 85.4902 49.5c2.17871 4.3584 4.31934 8.69727 6.38672 12.9854c7.03125 14.582 26.166 3.29102 24.0186 -10.125
c-9.5127 -59.4902 -21.0234 -118.652 -29.7881 -178.261c-2.64453 -17.9648 -5.39355 -36.4814 -7.57227 -55.208c18.5703 3.6543 37.1729 7.14648 55.8164 10.4219c17.4111 3.06152 24.8252 -23.5596 7.34375 -26.6406
c-16.4902 -2.90527 -32.9424 -6.00195 -49.3721 -9.2002c4.50488 -1.13379 8.96875 -2.44336 13.3623 -4.03906c25.0508 -9.11523 46.4541 -26.7686 58.4492 -50.8223zM37.415 51.9316c31.9102 26.3057 56.9209 63.6416 77.3105 101.248
c-22.0781 -2.33887 -46.96 -33.6211 -58.2412 -48.7764c-7.02539 -9.43652 -13.2988 -19.8193 -17.7656 -30.7148c-2.14453 -5.22852 -3.83301 -10.6514 -5.19629 -16.1309c-1.7334 -6.94824 -6.05371 -13.8232 3.89258 -5.62598zM167.041 -230.145
c23.2383 12.957 24.2998 53.8232 16.2773 75.0098c-12.1514 32.0947 -38.6035 43.5547 -67.9678 49.4609c-0.80957 -25.1719 0.467773 -50.1943 5.54004 -74.2578c3.68262 -17.4678 19.7744 -64.9189 46.1504 -50.2129z" />
    <glyph glyph-name="r" unicode="r" horiz-adv-x="154" 
d="M228.423 -125.881c13.2402 4.47266 18.8008 -16.3428 5.73535 -20.835c-44.9717 -15.4639 -84.7412 12.623 -104.844 52.3193c-22.7793 44.9912 -27.3926 97.5615 -28.1953 147.211c-0.898438 55.75 4.60352 109.974 11.4727 165.16
c0.408203 3.2627 0.220703 7.71973 0.329102 11.9668c-1.07715 -0.567383 -2.16016 -1.11816 -3.2334 -1.69434c-10.5488 -5.55957 -21.0371 -11.2529 -32.1914 -15.5479c-10.9502 -4.21777 -22.082 -6.63281 -33.1592 -6.81152
c18.0166 -39.5371 20.1797 -85.1309 19.4785 -128.341c-1.04199 -64.3076 -10.0449 -128.303 -19.6279 -191.798c-2.64062 -17.4971 -28.7363 -9.86035 -26.4014 7.27637c8.06348 59.1973 16.748 118.397 18.1758 178.223c1.20117 50.3789 0.101562 105.16 -31.3018 147.186
c-9.34082 12.498 8.03809 24.3623 19.1982 19.2012c24.4775 -11.3193 50.1465 3.74023 71.5146 15.1045c13.4473 7.15234 36.1816 20.0645 45.2549 -0.280273c8.0957 -18.1533 -1.58594 -47.5498 -4.125 -66.4355c-3.40234 -25.3057 -5.39062 -50.793 -6.41309 -76.2988
c-1.98828 -49.6074 -2.67285 -101.327 9.24219 -149.832c9.37305 -38.1475 37.8359 -103.086 89.0908 -85.7734z" />
    <glyph glyph-name="s" unicode="s" horiz-adv-x="190" 
d="M171.173 134.464c11.1924 4.60352 19.1416 -14.6914 8.21387 -19.4707c-12.1318 -5.30469 -18.3027 -22.6807 -24.1045 -33.8916c-5.29199 -10.2168 -10.2783 -20.5771 -14.79 -31.1543c3.19824 -3.01367 6.2373 -6.21191 8.94531 -9.7832
c22.9922 -30.3262 17.4229 -85.875 -17.4814 -106.36c-16.0732 -9.43359 -34.9883 -1.3418 -40.4678 16.2764c-6.43848 20.6953 4.86523 48.3555 11.2627 67.9424c2.36426 7.23828 4.96094 14.4062 7.72949 21.5137c-8.1875 4.75977 -17.2354 8.29883 -25.7129 11.0518
c-36.1562 11.7432 -92.5371 20.8359 -78.5928 72.54c10.7012 39.6836 44.7773 71.6855 77.3242 94.3887c17.5127 12.2148 96.5957 56.2119 89.5107 3.78125c-1.87012 -13.8271 -18.4971 -12.292 -24.7607 -2.68359c-0.595703 -1.15039 -3.19238 -0.949219 -6.27344 -1.96191
c-3.69238 -1.21387 -7.29199 -2.59375 -10.8604 -4.13574c-6.04395 -2.60938 -11.8867 -5.65527 -17.5771 -8.95898c-12.54 -7.2793 -24.4365 -15.8174 -35.3613 -25.3428c-18.6504 -16.2607 -41.6367 -40.002 -45.6924 -65.5596
c-4.12891 -26.0156 44.373 -30.6094 62.2686 -36.8789c8.99414 -3.15039 17.873 -6.95801 26.1982 -11.6475c3.30664 7.15234 6.78516 14.2246 10.4551 21.1826c9.61816 18.2363 19.7178 40.9072 39.7666 49.1523zM133.418 -22.8857
c4.03027 10.0449 5.66992 21.4111 2.87305 32.001c-1.31543 4.96973 -3.50391 9.36914 -6.2793 13.3291c-2.14453 -6.28906 -4.13867 -12.6318 -5.9707 -19.0127c-3.1377 -10.9248 -10.0508 -27.3574 -8.78906 -38.7754
c0.439453 -3.99512 -0.0771484 -8.74805 6.14453 -6.53418c1.52637 0.544922 3.82324 4.49902 4.66113 5.64258c3.02051 4.12891 5.45801 8.60547 7.36035 13.3496z" />
    <glyph glyph-name="t" unicode="t" horiz-adv-x="97" 
d="M115.442 -99.5498c11.9951 4.08398 18.2773 -13.4814 8.30859 -19.7002c-27.4658 -17.124 -49.9961 31.1299 -58.0244 49.7646c-14.9893 34.793 -23.9961 72.1318 -30.1191 109.42c-3.92188 23.8877 -6.8623 47.999 -8.97754 72.2148
c-3.49512 -0.360352 -6.9873 -0.660156 -10.4727 -0.826172c-12.6797 -0.602539 -15.7031 20.5391 -3.02051 22.3262c3.80762 1.25879 7.69434 2.34863 11.6094 3.36523c-2.52051 39.3613 -2.9375 78.8916 -1.71777 118.088c1.08984 35.0098 3.88672 69.9434 8.6084 104.657
c4.51758 33.2158 8.16504 70.3633 23.623 100.626c5.60352 10.9727 14.6641 23.9365 28.8154 20.1963c11.2109 -2.96289 13.4795 -13.1836 14.8428 -23.4043c4.67969 -35.0645 -3.46973 -72.668 -8.42969 -107.385c-9.79004 -68.4932 -19.1631 -137.107 -29.7939 -205.486
c5.12891 0.888672 10.2393 1.77148 15.2822 2.7207c16.4873 3.10645 23.4424 -22.1865 6.94922 -25.2002c-9.1084 -1.66309 -18.3379 -3.56543 -27.6123 -5.31152c2.36426 -32.0117 6.06934 -63.9346 12.3809 -95.3828c4.62305 -23.0342 10.4121 -45.8994 18.125 -68.1055
c2.08984 -6.01855 20.5938 -55.6514 29.623 -52.5771zM55.6523 313.239c-1.22363 -13.7598 -2.12793 -27.5439 -2.7998 -41.3389c1.06738 7.35645 2.14453 14.71 3.19629 22.0664c4.01758 28.0742 8.32129 56.126 11.8955 84.2607
c1.84473 14.5439 3.50781 29.1387 4.5332 43.7686c0.0126953 0.194336 0.0283203 0.388672 0.0410156 0.583008c-0.204102 -0.822266 -0.430664 -1.64062 -0.62793 -2.46582c-2.75293 -11.5078 -4.88086 -23.1807 -6.89453 -34.8379
c-4.12207 -23.8721 -7.19336 -47.9062 -9.34375 -72.0361z" />
    <glyph glyph-name="u" unicode="u" horiz-adv-x="210" 
d="M190.754 131.867c2.73047 -54.1025 5.59668 -108.199 8.13867 -162.312c0.837891 -17.8535 -26.7295 -17.7002 -27.6787 0.000976562c-2.06445 38.4922 -3.91895 76.9941 -5.84961 115.492c-0.991211 19.7686 -1.98242 39.5371 -2.97656 59.3057
c-0.373047 7.41016 -0.742188 14.8174 -1.11523 22.2275c-0.99707 -2.46289 -1.98145 -4.92871 -2.95605 -7.39746c-4.31641 -10.9336 -8.43555 -21.9473 -12.4883 -32.9805c-8.44629 -22.9863 -16.5479 -46.1035 -25.3311 -68.9658
c-8.38574 -21.833 -17.0576 -43.8984 -27.7842 -64.709c-8.45215 -16.3916 -21.6924 -38.2373 -42.2539 -39.751c-46.6064 -3.43164 -39.7021 74.9258 -38.2529 102.375c2.59668 49.2188 7.42676 102.165 23.2832 149.09c3.69238 10.9307 22.9863 9.8125 21.3174 -2.88281
c-7.91406 -60.1816 -19.249 -118.455 -18.8633 -179.545c0.0664062 -10.8955 -0.536133 -25.6621 5.66406 -35.2549c8.66895 -13.4092 19.5645 9.26465 23.9453 17.4746c12.1729 22.8174 21.3828 47.3711 30.4375 71.5459c8.92969 23.8564 17.3018 47.916 26.2568 71.7627
c7.94238 21.1484 15.248 44.9531 28.1641 63.7178c9.26758 13.4668 28.7783 13.7979 33.8857 -3.63184c3.40234 -11.6064 1.95605 -26.0479 2.56445 -38.1064z" />
    <glyph glyph-name="u" unicode="&#xfc;" horiz-adv-x="210" 
d="M190.754 131.867c2.73047 -54.1025 5.59668 -108.199 8.13867 -162.312c0.837891 -17.8535 -26.7295 -17.7002 -27.6787 0.000976562c-2.06445 38.4922 -3.91895 76.9941 -5.84961 115.492c-0.991211 19.7686 -1.98242 39.5371 -2.97656 59.3057
c-0.373047 7.41016 -0.742188 14.8174 -1.11523 22.2275c-0.99707 -2.46289 -1.98145 -4.92871 -2.95605 -7.39746c-4.31641 -10.9336 -8.43555 -21.9473 -12.4883 -32.9805c-8.44629 -22.9863 -16.5479 -46.1035 -25.3311 -68.9658
c-8.38574 -21.833 -17.0576 -43.8984 -27.7842 -64.709c-8.45215 -16.3916 -21.6924 -38.2373 -42.2539 -39.751c-46.6064 -3.43164 -39.7021 74.9258 -38.2529 102.375c2.59668 49.2188 7.42676 102.165 23.2832 149.09c3.69238 10.9307 22.9863 9.8125 21.3174 -2.88281
c-7.91406 -60.1816 -19.249 -118.455 -18.8633 -179.545c0.0664062 -10.8955 -0.536133 -25.6621 5.66406 -35.2549c8.66895 -13.4092 19.5645 9.26465 23.9453 17.4746c12.1729 22.8174 21.3828 47.3711 30.4375 71.5459c8.92969 23.8564 17.3018 47.916 26.2568 71.7627
c7.94238 21.1484 15.248 44.9531 28.1641 63.7178c9.26758 13.4668 28.7783 13.7979 33.8857 -3.63184c3.40234 -11.6064 1.95605 -26.0479 2.56445 -38.1064z" />
    <glyph glyph-name="u" unicode="&#xfb;" horiz-adv-x="210" 
d="M190.754 131.867c2.73047 -54.1025 5.59668 -108.199 8.13867 -162.312c0.837891 -17.8535 -26.7295 -17.7002 -27.6787 0.000976562c-2.06445 38.4922 -3.91895 76.9941 -5.84961 115.492c-0.991211 19.7686 -1.98242 39.5371 -2.97656 59.3057
c-0.373047 7.41016 -0.742188 14.8174 -1.11523 22.2275c-0.99707 -2.46289 -1.98145 -4.92871 -2.95605 -7.39746c-4.31641 -10.9336 -8.43555 -21.9473 -12.4883 -32.9805c-8.44629 -22.9863 -16.5479 -46.1035 -25.3311 -68.9658
c-8.38574 -21.833 -17.0576 -43.8984 -27.7842 -64.709c-8.45215 -16.3916 -21.6924 -38.2373 -42.2539 -39.751c-46.6064 -3.43164 -39.7021 74.9258 -38.2529 102.375c2.59668 49.2188 7.42676 102.165 23.2832 149.09c3.69238 10.9307 22.9863 9.8125 21.3174 -2.88281
c-7.91406 -60.1816 -19.249 -118.455 -18.8633 -179.545c0.0664062 -10.8955 -0.536133 -25.6621 5.66406 -35.2549c8.66895 -13.4092 19.5645 9.26465 23.9453 17.4746c12.1729 22.8174 21.3828 47.3711 30.4375 71.5459c8.92969 23.8564 17.3018 47.916 26.2568 71.7627
c7.94238 21.1484 15.248 44.9531 28.1641 63.7178c9.26758 13.4668 28.7783 13.7979 33.8857 -3.63184c3.40234 -11.6064 1.95605 -26.0479 2.56445 -38.1064z" />
    <glyph glyph-name="u" unicode="&#xfa;" horiz-adv-x="210" 
d="M190.754 131.867c2.73047 -54.1025 5.59668 -108.199 8.13867 -162.312c0.837891 -17.8535 -26.7295 -17.7002 -27.6787 0.000976562c-2.06445 38.4922 -3.91895 76.9941 -5.84961 115.492c-0.991211 19.7686 -1.98242 39.5371 -2.97656 59.3057
c-0.373047 7.41016 -0.742188 14.8174 -1.11523 22.2275c-0.99707 -2.46289 -1.98145 -4.92871 -2.95605 -7.39746c-4.31641 -10.9336 -8.43555 -21.9473 -12.4883 -32.9805c-8.44629 -22.9863 -16.5479 -46.1035 -25.3311 -68.9658
c-8.38574 -21.833 -17.0576 -43.8984 -27.7842 -64.709c-8.45215 -16.3916 -21.6924 -38.2373 -42.2539 -39.751c-46.6064 -3.43164 -39.7021 74.9258 -38.2529 102.375c2.59668 49.2188 7.42676 102.165 23.2832 149.09c3.69238 10.9307 22.9863 9.8125 21.3174 -2.88281
c-7.91406 -60.1816 -19.249 -118.455 -18.8633 -179.545c0.0664062 -10.8955 -0.536133 -25.6621 5.66406 -35.2549c8.66895 -13.4092 19.5645 9.26465 23.9453 17.4746c12.1729 22.8174 21.3828 47.3711 30.4375 71.5459c8.92969 23.8564 17.3018 47.916 26.2568 71.7627
c7.94238 21.1484 15.248 44.9531 28.1641 63.7178c9.26758 13.4668 28.7783 13.7979 33.8857 -3.63184c3.40234 -11.6064 1.95605 -26.0479 2.56445 -38.1064z" />
    <glyph glyph-name="v" unicode="v" horiz-adv-x="194" 
d="M165.824 242.724c6.65527 15.1807 33.1328 3.86035 26.751 -11.2695c-21.5879 -51.1562 -37.2812 -104.3 -50.3916 -158.192c-6.56641 -26.9941 -12.5684 -54.1221 -18.6348 -81.2305c-4.10938 -18.3477 -6.93848 -47.0625 -26.3818 -56.3623
c-22.375 -10.7051 -31.7129 16.6709 -36.6133 32.5557c-8.33398 27.0166 -14.0908 54.96 -20.835 82.4033c-6.98633 28.4121 -14.0781 56.7988 -20.9082 85.249c-3.41504 14.2285 -6.91602 28.4473 -10.0195 42.7451c-1.94336 8.96191 -4.91309 17.2773 -0.484375 25.8223
c5.80176 11.1953 24.7227 3.28125 20.4248 -8.61133c0.802734 2.22363 2.60254 -8.17871 3.37402 -10.7881c1.77441 -6.01172 3.42773 -12.0557 5.08398 -18.0996c3.31055 -12.0908 6.60156 -24.1846 9.81934 -36.3008c5.89746 -22.209 11.7373 -44.4365 17.6055 -66.6553
c6.0625 -22.9609 12.0205 -45.9531 18.1943 -68.8848c1.23926 -4.60059 2.48145 -9.20117 3.86133 -13.7598c0.232422 -0.761719 1.4082 -3.67383 2.60938 -6.83789c1.03906 3.56152 1.7207 7.26953 2.53613 10.8633c19.8008 87.2266 37.916 175.049 74.0088 257.354z" />
    <glyph glyph-name="w" unicode="w" horiz-adv-x="253" 
d="M235.336 209.82c8.11133 -51.2988 2.08398 -102.491 -4.37109 -153.638c-2.99121 -23.7061 -6.32324 -47.4023 -11.6885 -70.7012c-4.47266 -19.4209 -10.0547 -43.3662 -24.9492 -57.8115c-37.9668 -36.8164 -64.7891 35.2676 -70.4668 61.583
c-6.15527 28.5205 -7.1748 57.6748 -9.4873 86.6699c-5.40918 -17.1914 -9.96191 -34.7109 -15.7256 -51.835c-6.27344 -18.6377 -18.7461 -58.8916 -46.6318 -44.3516c-26.0576 13.5879 -28.9346 59.0479 -32.9746 84.0605
c-5.71875 35.4238 -8.7959 71.2139 -7.88184 107.106c0.360352 14.1553 21.2666 14.041 21.9033 0.000976562c1.30273 -28.6797 3.40527 -57.334 7.86914 -85.7139c2.16016 -13.7217 4.76953 -27.376 7.83789 -40.9189c2.07715 -9.16895 3.9502 -30.709 12.0586 -36.1318
c0.646484 -0.891602 1.12402 -1.56348 1.47461 -2.06348c1.74609 3.25879 3.26562 6.62305 4.54297 10.0986c1.99707 4.99219 3.77148 10.0732 5.47949 15.1738c3.99805 11.9375 7.33984 24.082 10.8447 36.1729c6.82422 23.5439 14.3809 46.7148 26.1787 68.2988
c5.49219 10.0518 22.7217 8.3252 25.1396 -3.28711c7.24512 -34.793 7.61133 -70.2324 11.3867 -105.449c1.93359 -18.0381 5.0752 -36.0762 11.2178 -53.2031c1.8252 -5.08789 7.03418 -22.499 13.2725 -24.8984c7.78906 -2.99805 11.542 11.0039 13.8516 17.165
c13.3906 35.7422 16.6338 75.9961 21.0146 113.618c4.72461 40.5918 8.67188 81.8428 2.88672 122.552c-2.5166 17.6943 24.3691 25.5029 27.2178 7.50293z" />
    <glyph glyph-name="x" unicode="x" horiz-adv-x="178" 
d="M159.137 215.125c9.8252 10.0479 24.0059 -4.7793 15.21 -15.2031c-29.3457 -34.7646 -57.0947 -70.3418 -83.0498 -107.164c1.97168 -5.4834 3.97559 -10.957 6.0752 -16.4111c19.3125 -50.1621 41.9326 -98.9639 67.2637 -146.36
c8.41406 -15.7412 -15.6836 -29.75 -23.8965 -13.9707c-24.9678 47.9668 -47.1484 97.3447 -66.1719 147.972c-0.360352 0.952148 -0.716797 1.91406 -1.07324 2.86621c-19.6631 -29.3037 -38.208 -59.4268 -55.5137 -90.5977
c-8.41406 -15.1582 -31.499 -1.61816 -23.2129 13.5654c20.2275 37.0586 42.707 73.333 67.2988 108.136c-14.4355 40.3115 -27.5195 81.8242 -34.9111 123.515c-2.49805 14.0879 17.2031 19.918 21.6475 5.96973c11.0264 -34.6113 20.8008 -69.3857 31.9766 -103.81
c24.2637 32.1904 50.4043 62.8965 78.3574 91.4932z" />
    <glyph glyph-name="y" unicode="y" horiz-adv-x="225" 
d="M199.518 220.63c12.2686 -42.6748 9.22949 -92.4824 8.52832 -136.349c-0.761719 -47.7568 -4.00488 -95.4531 -9.68262 -142.875c-5.29199 -44.1885 -11.2529 -89.1387 -25.2354 -131.549c-10.1729 -30.8613 -30.3555 -87.1875 -71.2461 -86.2061
c-40.8848 0.981445 -40.9131 60.5225 -39.2119 88.9375c2.55859 42.7324 14.8145 84.0977 36.1152 121.217c9.02246 15.7256 32.7861 1.7207 24.2412 -14.1709c-21.6387 -40.2441 -34.5479 -86.1816 -31.8115 -132.17c0.529297 -8.9082 0.625 -22.4385 5.97461 -30.0332
c8.58008 -12.1826 21.3906 4.62891 26.6123 12.3672c12.9092 19.1279 20.4092 42.2988 26.4658 64.374c22.0176 80.2402 27.2363 167.244 28.543 250.106c0.356445 22.543 0.276367 45.125 -0.615234 67.6523c-0.391602 9.89551 -0.974609 19.7939 -1.96582 29.6475
c-0.140625 1.37012 -1.5332 7.65625 -2.84277 14.248c-0.952148 -2.35742 -1.89551 -4.71777 -2.82227 -7.08203c-3.46582 -8.85059 -6.74121 -17.7803 -9.88574 -26.7549c-6.29883 -17.9746 -12.0684 -36.1338 -17.8447 -54.2803
c-11.6318 -36.5488 -23.4199 -73.0527 -38.9922 -108.158c-6.60156 -14.8848 -13.375 -31.9805 -29.5342 -38.6514c-14.2764 -5.89355 -28.2373 -1.04102 -37.2021 11.1064c-21.3008 28.8613 -19.6758 75.2861 -21.1924 109.296
c-1.89844 42.6396 -1.15625 85.9775 5.36816 128.213c2.00098 12.9473 23.0342 9.5957 22.54 -3.05273c-2.12793 -54.5264 -3.63477 -108.24 2.16016 -162.649c1.37598 -12.9219 2.60547 -26.2266 6.5625 -38.6768c2.29395 -7.21973 3.17676 -15.1562 11.1699 -13.7891
c6.1709 1.05469 6.55664 4.74707 9.12402 9.89258c11.2939 22.623 19.7617 46.7939 27.832 70.7236c13.9922 41.4834 25.748 83.7471 41.6963 124.556c5.6582 14.4795 10.9209 38.6445 27.5166 44.6113c15.2539 5.48633 25.8916 -7.4834 29.6348 -20.501z" />
    <glyph glyph-name="y" unicode="&#xff;" horiz-adv-x="225" 
d="M199.518 220.63c12.2686 -42.6748 9.22949 -92.4824 8.52832 -136.349c-0.761719 -47.7568 -4.00488 -95.4531 -9.68262 -142.875c-5.29199 -44.1885 -11.2529 -89.1387 -25.2354 -131.549c-10.1729 -30.8613 -30.3555 -87.1875 -71.2461 -86.2061
c-40.8848 0.981445 -40.9131 60.5225 -39.2119 88.9375c2.55859 42.7324 14.8145 84.0977 36.1152 121.217c9.02246 15.7256 32.7861 1.7207 24.2412 -14.1709c-21.6387 -40.2441 -34.5479 -86.1816 -31.8115 -132.17c0.529297 -8.9082 0.625 -22.4385 5.97461 -30.0332
c8.58008 -12.1826 21.3906 4.62891 26.6123 12.3672c12.9092 19.1279 20.4092 42.2988 26.4658 64.374c22.0176 80.2402 27.2363 167.244 28.543 250.106c0.356445 22.543 0.276367 45.125 -0.615234 67.6523c-0.391602 9.89551 -0.974609 19.7939 -1.96582 29.6475
c-0.140625 1.37012 -1.5332 7.65625 -2.84277 14.248c-0.952148 -2.35742 -1.89551 -4.71777 -2.82227 -7.08203c-3.46582 -8.85059 -6.74121 -17.7803 -9.88574 -26.7549c-6.29883 -17.9746 -12.0684 -36.1338 -17.8447 -54.2803
c-11.6318 -36.5488 -23.4199 -73.0527 -38.9922 -108.158c-6.60156 -14.8848 -13.375 -31.9805 -29.5342 -38.6514c-14.2764 -5.89355 -28.2373 -1.04102 -37.2021 11.1064c-21.3008 28.8613 -19.6758 75.2861 -21.1924 109.296
c-1.89844 42.6396 -1.15625 85.9775 5.36816 128.213c2.00098 12.9473 23.0342 9.5957 22.54 -3.05273c-2.12793 -54.5264 -3.63477 -108.24 2.16016 -162.649c1.37598 -12.9219 2.60547 -26.2266 6.5625 -38.6768c2.29395 -7.21973 3.17676 -15.1562 11.1699 -13.7891
c6.1709 1.05469 6.55664 4.74707 9.12402 9.89258c11.2939 22.623 19.7617 46.7939 27.832 70.7236c13.9922 41.4834 25.748 83.7471 41.6963 124.556c5.6582 14.4795 10.9209 38.6445 27.5166 44.6113c15.2539 5.48633 25.8916 -7.4834 29.6348 -20.501z" />
    <glyph glyph-name="y" unicode="&#xfd;" horiz-adv-x="225" 
d="M199.518 220.63c12.2686 -42.6748 9.22949 -92.4824 8.52832 -136.349c-0.761719 -47.7568 -4.00488 -95.4531 -9.68262 -142.875c-5.29199 -44.1885 -11.2529 -89.1387 -25.2354 -131.549c-10.1729 -30.8613 -30.3555 -87.1875 -71.2461 -86.2061
c-40.8848 0.981445 -40.9131 60.5225 -39.2119 88.9375c2.55859 42.7324 14.8145 84.0977 36.1152 121.217c9.02246 15.7256 32.7861 1.7207 24.2412 -14.1709c-21.6387 -40.2441 -34.5479 -86.1816 -31.8115 -132.17c0.529297 -8.9082 0.625 -22.4385 5.97461 -30.0332
c8.58008 -12.1826 21.3906 4.62891 26.6123 12.3672c12.9092 19.1279 20.4092 42.2988 26.4658 64.374c22.0176 80.2402 27.2363 167.244 28.543 250.106c0.356445 22.543 0.276367 45.125 -0.615234 67.6523c-0.391602 9.89551 -0.974609 19.7939 -1.96582 29.6475
c-0.140625 1.37012 -1.5332 7.65625 -2.84277 14.248c-0.952148 -2.35742 -1.89551 -4.71777 -2.82227 -7.08203c-3.46582 -8.85059 -6.74121 -17.7803 -9.88574 -26.7549c-6.29883 -17.9746 -12.0684 -36.1338 -17.8447 -54.2803
c-11.6318 -36.5488 -23.4199 -73.0527 -38.9922 -108.158c-6.60156 -14.8848 -13.375 -31.9805 -29.5342 -38.6514c-14.2764 -5.89355 -28.2373 -1.04102 -37.2021 11.1064c-21.3008 28.8613 -19.6758 75.2861 -21.1924 109.296
c-1.89844 42.6396 -1.15625 85.9775 5.36816 128.213c2.00098 12.9473 23.0342 9.5957 22.54 -3.05273c-2.12793 -54.5264 -3.63477 -108.24 2.16016 -162.649c1.37598 -12.9219 2.60547 -26.2266 6.5625 -38.6768c2.29395 -7.21973 3.17676 -15.1562 11.1699 -13.7891
c6.1709 1.05469 6.55664 4.74707 9.12402 9.89258c11.2939 22.623 19.7617 46.7939 27.832 70.7236c13.9922 41.4834 25.748 83.7471 41.6963 124.556c5.6582 14.4795 10.9209 38.6445 27.5166 44.6113c15.2539 5.48633 25.8916 -7.4834 29.6348 -20.501z" />
    <glyph glyph-name="z" unicode="z" horiz-adv-x="167" 
d="M136.738 160.588c-26.2041 -32.4707 -56.0889 -62.4482 -76.6729 -99.0635c-8.29883 -14.7666 -28.1025 -49.4736 -13.9697 -65.002c14.1865 -15.582 52.5449 4.21875 66.5723 12.4385c15.1396 8.86914 28.8135 -14.6494 13.7188 -23.4678
c-28.8008 -16.8281 -86.873 -38.6104 -106.514 2.00684c-17.0801 35.3184 12.5459 82.1191 32.6074 110.139c25.0312 34.9619 57.2373 64.6064 81.2305 100.25c0.777344 1.17578 1.55469 2.34473 2.33203 3.51758c-2.83203 -0.739258 -5.69336 -1.43359 -8.43359 -2.30957
c-11.2012 -3.59082 -22.3076 -7.47168 -33.3242 -11.6074c-24.7832 -9.30273 -48.7695 -20.3672 -72.7627 -31.5117c-12.5811 -5.8457 -23.4639 11.7432 -11.0547 18.9111c21.3076 12.3066 43.6152 22.54 66.3691 31.8623c19.2178 7.87598 41.2959 18.7754 62.0771 21.1074
c13.4258 1.50684 26.877 -5.46387 26.2178 -20.5303c-0.749023 -17.0928 -18.2686 -34.1943 -28.3936 -46.7402z" />
    <glyph glyph-name="braceleft" unicode="{" horiz-adv-x="399" 
d="M327.876 -113.304c15.6973 9.08594 29.5762 -14.8613 14.166 -24.25c-43.7842 -26.6758 -93.4521 -44.9531 -138.039 -9.37988c-39.8301 31.7793 -50.1934 83.4072 -44.0762 131.82c3.74023 29.626 12.5234 57.9736 21.0557 86.4814
c7.90137 26.4111 18.584 56.2725 17.1504 84.2158c-1.42383 27.8164 -40.6172 24.3154 -60.4043 20.2314c-24.8496 -5.12891 -46.5039 -17.9551 -63.6025 -36.5547c-13.3428 -12.7402 -32.4873 6.62402 -20.1611 20.1641c2.63477 2.89258 5.43164 5.63281 8.29883 8.2998
c63.5459 66.4199 80.1162 161.283 106.651 246.321c7.43555 23.834 15.8975 47.3555 26.2393 70.0967c7.97754 17.5449 16.8633 36.6318 32.751 48.4639c27.4277 20.4277 66.8662 5.8457 75.8955 -26.7715c3.7207 -13.4443 -17.0703 -19.1055 -20.833 -5.74414
c-5.28223 18.752 -27.1348 25.9648 -42.0479 13.2246c-14.4229 -12.3164 -22.0244 -34.748 -28.7627 -51.8594c-15.4482 -39.2314 -25.6299 -80.2559 -36.6816 -120.866c-12.998 -47.7529 -28.415 -96.2139 -53.1758 -139.039
c20.3232 5.75391 41.8662 7.02539 62.8008 2.80371c59.1367 -11.9277 40.8779 -79.3379 29.2363 -121.121c-14.9961 -53.8389 -42.8662 -117.327 -18.8672 -172.742c8.96484 -20.6953 25.8057 -39.7373 47.7275 -46.7939c29.9893 -9.65625 59.6152 8.4873 84.6787 22.999z
" />
    <glyph glyph-name="verticalbar" unicode="|" horiz-adv-x="99" 
d="M89.8857 -86.8252c2.26855 -17.9141 -25.8213 -17.668 -28.0771 0.000976562c-13.6963 107.291 -23.8877 215.006 -30.9863 322.935c-7.06934 107.454 -15.0059 216.753 -1.40527 323.968c1.74316 13.7412 23.5312 13.9033 21.8047 0
c-13.2568 -106.689 -1.45605 -217.202 6.23145 -323.968c7.77051 -107.929 18.8477 -215.59 32.4326 -322.936z" />
    <glyph glyph-name="braceright" unicode="}" horiz-adv-x="339" 
d="M253.463 238.432c19.125 -4.73438 46.7002 -34.2002 30.9297 -54.0771c-16.4395 -20.7246 -47.8232 1.7998 -60.9043 15.3936c-1.47461 -2.06445 -2.76172 -4.24023 -3.8418 -6.39746c-8.58008 -17.1113 -10.2842 -39.2656 -12.4316 -57.9443
c-4.58789 -39.9102 -4.96387 -80.1416 -7.38867 -120.207c-2.35742 -38.916 -6.42578 -78.3223 -17.8408 -115.757c-8.7998 -28.8613 -31.4736 -63.3135 -65.9639 -45.0068c-16.1943 8.5957 -1.94727 32.0342 14.2207 24.3271
c26.2266 -12.5049 37.9414 92.9453 39.3047 107.266c3.71484 38.9893 4.0459 78.1914 6.78613 117.244c2.20117 31.4062 3.89648 66.5146 15.6016 96.0703c3.15723 7.9707 7.87207 15.6357 13.7441 22.1289c-30.9893 43.6436 -44.8037 99.1543 -53.6064 150.839
c-5.93848 34.8662 -8.70703 70.9209 -17.5889 105.201c-4.13867 15.9775 -11.3545 33.3379 -26.5986 41.71c-13.6133 7.47363 -29.998 4.06152 -36.6562 -10.5488c-5.27246 -11.5615 -25.2227 -3.05566 -20.5166 8.64941c12.4668 31.0117 49.2158 37.957 75.5186 19.1025
c33.0947 -23.7256 37.1406 -69.0547 43.2197 -106.015c7.39453 -44.9658 13.8428 -90.4346 29.1641 -133.565c6.71875 -18.918 15.3369 -37.167 26.2969 -54.0137c1.21094 -1.86035 2.46582 -3.70508 3.7334 -5.54004c7.66504 2.66016 16.0439 3.31348 24.8184 1.14062z" />
    <glyph glyph-name="nonbreakingspace" unicode="&#xa0;" horiz-adv-x="346" 
 />
    <glyph glyph-name="exclamdown" unicode="&#xa1;" horiz-adv-x="84" 
d="M59.0889 71.4717c3.40527 -90.1387 8.02051 -180.229 13.4873 -270.263c1.10547 -18.1689 -27.1406 -18.0508 -28.2236 0.000976562c-5.40332 90.0273 -9.49121 180.124 -12.4512 270.263c-2.95312 89.998 -6.32422 180.458 -4.05273 270.504
c0.375977 14.8975 22.3711 14.7734 23.0469 0c4.12207 -90.0908 4.78809 -180.373 8.19336 -270.505zM44.6143 381.998c-0.308594 -11.8359 -19.7139 -15.4551 -21.4629 -2.90625c-4.14844 29.7627 -1.91211 59.3184 3.46289 88.7812
c2.97559 16.2988 28.1025 9.42383 24.9131 -6.86914c-5.13574 -26.2227 -6.21582 -52.3721 -6.91309 -79.0059z" />
    <glyph glyph-name="cent" unicode="&#xa2;" horiz-adv-x="336" 
d="M263.157 66.9893c7.65918 13.6963 28.5859 1.43848 21.0166 -12.2861c-19.0898 -34.5986 -41.4131 -67.9297 -69.248 -96.1631c-17.7676 -18.0225 -39.7148 -37.1982 -64.3389 -47.3291c1.20703 -21.5977 2.74902 -43.1953 4.68262 -64.7793
c1.54883 -17.29 -25.5439 -17.2041 -26.9805 0c-1.6123 19.3252 -2.87988 38.6475 -3.88965 57.9668c-2.5293 -0.261719 -5.0752 -0.427734 -7.64258 -0.447266c-73.6934 -0.570312 -93.3086 103.02 -98.5107 158.447c-7.34961 78.29 3.44727 158.947 30.6133 232.704
c11.8105 32.0693 26.3291 63.4443 48.5566 89.7188c9.94336 11.7529 23.3213 24.5059 38.1807 31.7695c1.72949 41.8311 3.10547 83.6719 3.70117 125.521c0.194336 13.8145 21.5752 13.8145 21.4541 0c-0.353516 -39.8457 -1.37012 -79.7109 -2.68945 -119.586
c7.46484 0.181641 15.0508 -1.54199 22.5508 -5.89355c29.7529 -17.2549 31.7158 -56.5117 33.4365 -86.9688c2.42773 -42.9805 -1.22363 -85.9805 -4.68945 -128.796c-1.48145 -18.3193 -30.25 -18.3604 -28.6729 0c3.2373 37.7305 6.3623 75.582 5.42578 113.484
c-0.452148 18.3281 -0.0957031 82.4922 -29.043 79.5547c-5.50195 -151.289 -14.3105 -302.705 -7.88184 -453.834c50.8721 25.6562 87.0098 78.6914 113.969 126.916zM123.113 -67.8359c-5.82422 150.068 4.17285 300.045 10.9814 450.091
c-18.6729 -14.8877 -32.3535 -38.1924 -42.4619 -58.4355c-13.6387 -27.3125 -23.4229 -56.7656 -31.0654 -86.2705c-15.6719 -60.5 -20.3994 -124.272 -12.9385 -186.378c3.7373 -31.126 11.4629 -63.2529 27.5137 -90.4609
c11.9346 -20.2275 28.5654 -29.957 47.9707 -28.5459z" />
    <glyph glyph-name="sterling" unicode="&#xa3;" horiz-adv-x="372" 
d="M284.982 433.259c25.6309 -36.3447 33.0537 -81.8906 37.0615 -125.206c1.1123 -12.0488 -19.1152 -14.6709 -21.0713 -2.85156c-4.11914 24.9043 -8.33691 50.0664 -16.668 73.9795c-7.50586 21.5459 -20.0205 49.7412 -41.5312 60.5195
c-47.667 23.8848 -50.9258 -122.915 -51.7031 -146.484c-1.44629 -43.9912 -1.69434 -88.0615 -0.945312 -132.135c10.1816 4.66406 20.4053 9.22656 30.6797 13.623c16.0342 6.86523 29.9658 -16.7266 13.8164 -23.6396
c-14.7598 -6.31738 -29.3545 -12.9092 -43.8467 -19.6855c1.49707 -55.415 4.52734 -110.799 8.70996 -165.998c30.1543 15.1143 66.3584 28.457 91.4541 3.54297c12.4629 -12.3711 -6.69043 -31.4805 -19.2559 -19.2529
c-15.0566 14.6553 -40.4033 0.0888672 -55.8936 -6.80176c-4.69629 -2.08984 -9.36719 -4.25 -14.0127 -6.45508c0.133789 -1.63086 0.260742 -3.26172 0.397461 -4.89258c1.24902 -14.792 -17.5986 -17.1045 -24.8916 -7.36816
c-4.08789 -2.16016 -8.15332 -4.3584 -12.1934 -6.60449c-17.334 -9.63086 -34.2764 -19.9814 -50.7061 -31.084c-16.3242 -11.0293 -31.5176 -24.1523 -48.2822 -34.4365c-10.9463 -6.70996 -21.3066 8.2666 -13.2109 17.123
c16.2734 17.8027 38.1797 32.1143 58.085 45.5557c19.9023 13.4346 40.5693 25.665 61.877 36.7363c-4.41211 55.7305 -6.89062 111.624 -8.0918 167.508c-25.6787 -12.5527 -51.0576 -25.7041 -76.3057 -39.3047c-13.9512 -7.51562 -25.9297 12.9629 -12.4121 21.2334
c28.501 17.4424 58.0342 33.3623 88.1602 48.0107c-0.729492 48.0947 -0.722656 96.2783 0.946289 144.328c0.920898 26.5322 2.81348 53.0039 6.53125 79.2998c3.29102 23.2822 7.3877 47.6611 19.6182 68.1748c10.0449 16.8535 25.6113 29.9668 46.3008 27.2432
c20.4248 -2.68848 36.0703 -18.6367 47.3838 -34.6777z" />
    <glyph glyph-name="currency" unicode="&#xa4;" horiz-adv-x="300" 
d="M280.929 285.647c4.49512 -4.59375 5.42676 -13.748 0.00390625 -18.1572c-13.0205 -10.584 -24.7314 -22.2822 -36.0352 -34.5605c7.78027 -11.415 12.543 -25.6055 13.0332 -42.9336c1.00391 -35.5039 -17.2354 -70.1533 -41.3242 -99.1895
c0.216797 -0.207031 0.449219 -0.366211 0.65625 -0.598633c11.4434 -12.9502 21.1631 -27.707 29.835 -42.6201c7.99707 -13.75 -13.3799 -26.1816 -21.2744 -12.4375c-7.62109 13.2627 -16.4336 25.4551 -25.5039 37.6924
c-10.1182 -10.2715 -20.6826 -19.5459 -30.9062 -27.5234c-20.4346 -15.9395 -49.251 -38.4385 -76.8027 -28.0273c-0.261719 0.0986328 -0.488281 0.232422 -0.746094 0.333984c-7.95801 -14.4355 -16.9424 -28.4277 -25.3467 -42.5381
c-8.13672 -13.6514 -29.5527 -1.16895 -21.3203 12.4639c9.24902 15.3174 18.1094 31.1289 28.084 46.0391c-8.0791 13.1133 -10.1055 30.7119 -10.3984 45.6631c-1.13379 57.7568 20.9512 112.255 46.5244 163.273c-11.4346 -1.88281 -22.7637 -4.48926 -33.8857 -7.7041
c-7.37207 -2.13184 -14.6777 -4.50879 -21.8682 -7.19141c-4.38672 -1.625 -8.72266 -3.37109 -13.0107 -5.24121c-0.535156 -0.456055 -0.99707 -0.799805 -1.42383 -1.08984c2.93066 -6.88184 0.129883 -16.0986 -9.21777 -15.0342
c-10.5234 1.19824 -18.4277 8.47461 -16.7842 19.7715c2.03613 13.9893 16.9873 19.0674 28.3867 23.7568c20.3896 8.38574 41.7158 14.4229 63.4473 18.1055c-7.22266 10.4658 -14.4453 20.9346 -21.6611 31.4062c-9.12793 13.25 12.3291 25.4678 21.4473 12.5391
c9.45215 -13.3994 18.9111 -26.7959 28.335 -40.2148c0.506836 -0.0449219 1.01367 -0.115234 1.51367 -0.213867c3.71191 0.257812 7.42969 0.490234 11.1504 0.614258c29.75 0.991211 60.207 -5.22461 81.8652 -21.3643c10.3604 12.8994 22.209 24.5342 35.0645 34.9805
c5.35254 4.34863 12.9004 5.38086 18.1631 0zM194.244 107.172c30.1963 36.5322 64.4277 111.245 -0.488281 133.278c-15.624 5.30469 -32.876 6.52832 -49.8662 5.79883c-25.9238 -50.1074 -51.6533 -103.838 -52.1982 -161.337
c-0.101562 -10.5967 -1.06738 -25.8984 5.1416 -35.2744c10.0352 -15.1582 29.4082 -0.792969 40.3838 6.34961c21.502 13.9922 40.6904 31.4189 57.0273 51.1846z" />
    <glyph glyph-name="yen" unicode="&#xa5;" horiz-adv-x="353" 
d="M324.758 145.579c13.4639 5.4668 22.9443 -17.5645 9.86328 -23.3848c-18.1885 -8.08301 -36.5391 -15.8213 -54.9473 -23.4258c-1.36328 -39.3271 -2.75195 -78.6602 -4.7207 -117.958c-2.35449 -46.9375 -1.79688 -99.0049 -18.9082 -143.388
c-6.52148 -16.9141 -33.9014 -9.7334 -27.5039 7.58203c9.98828 27.0293 12.3359 55.5146 14.627 84.0283c2.28418 28.3994 3.71484 56.8623 4.94434 85.3252c1.04492 24.2354 2.00684 48.4766 2.94629 72.7148c-14.8682 -6.01172 -29.7529 -11.9854 -44.6309 -17.9434
c-14.9512 -5.9834 -21.0645 17.9141 -6.60352 23.9541c17.4648 7.29297 34.8818 14.7061 52.3057 22.1133c0.633789 16.9453 1.24902 33.8945 1.84766 50.8398c-20.2627 -6.65234 -40.1396 -14.5566 -59.666 -23.7031c-12.3516 -5.78223 -23.0146 11.5205 -10.8545 18.5713
c22.6709 13.1445 46.6641 23.709 71.4727 31.874c1.6377 47.0234 3.26562 94.0508 4.54004 141.087c0.65625 24.2451 1.12793 48.5029 0.984375 72.7607c-0.0703125 11.6162 -0.140625 23.2578 -0.768555 34.8604c-0.331055 6.13281 -0.742188 12.291 -1.61523 18.373
c-0.219727 1.52246 -0.697266 3.29688 -1.21973 5.1416c-2.28125 -5.19922 -4.51758 -10.4209 -6.68066 -15.6748c-3.57422 -8.6875 -6.99219 -17.4424 -10.3184 -26.2295c-7.99023 -21.1221 -15.3525 -42.4736 -22.5078 -63.8926
c-14.3115 -42.834 -27.7588 -85.9707 -43.6211 -128.267c-8.31543 -22.1738 -17.2676 -44.1504 -27.2334 -65.6396c-7.7959 -16.8086 -15.3691 -34.8857 -26.9941 -49.4424c-11.0996 -13.9004 -27.5322 -23.6396 -45.542 -17.2422
c-14.292 5.0752 -23.5469 19.2588 -29.1797 32.541c-9.2041 21.7119 -11.8643 46.4121 -15.2568 69.5645c-3.15039 21.4951 -5.66406 43.083 -7.40039 64.7373c-4.10059 51.1719 -4.36816 102.924 0.50293 154.048c1.4209 14.9199 24.5127 15.3535 23.6465 0.000976562
c-3.13184 -55.5586 -3.06152 -110.927 2.6543 -166.333c2.99512 -29.0488 7.20703 -58.1455 13.3271 -86.7139c3.2334 -15.0918 14.2188 -58.3369 34.8662 -34.6143c14.7383 16.9326 23.4775 42.4805 32.3086 62.8516c8.47168 19.542 16.0352 39.4795 23.2197 59.5283
c15.2383 42.5352 28.5137 85.7363 43.0957 128.494c7.8916 23.1387 16.1465 46.1631 25.29 68.8398c6.09766 15.123 11.3418 37.4531 23.5723 48.9414c13.6895 12.8613 30.0713 3.75879 35.5195 -11.6582c6.51855 -18.4531 7.45801 -39.0791 8.01562 -58.4717
c2.18848 -76.2383 -1.20801 -152.885 -4.50586 -229.282c11.877 2.96582 23.8877 5.41602 35.9873 7.35645c16.1338 2.58398 23.0186 -22.0781 6.80273 -24.6748c-14.8809 -2.38281 -29.498 -5.55957 -43.9238 -9.33496
c-0.621094 -14.7666 -1.21387 -29.5273 -1.7334 -44.2656c-0.0351562 -0.97168 -0.0673828 -1.93652 -0.102539 -2.90527c14.668 6.18359 29.3516 12.3291 44.0986 18.3154z" />
    <glyph glyph-name="section" unicode="&#xa7;" horiz-adv-x="276" 
d="M206.241 -4.14844c24.3525 -35.1562 28.0566 -88.0889 -6.75293 -118.091c-38.9287 -33.5508 -93.1719 -19.4814 -135.009 -0.302734c-14.3906 6.59473 -3.79102 31.4736 10.7783 25.5674c23.5947 -9.57031 48.9609 -20.2617 75.002 -17.0723
c24.5312 3.00391 44.2744 18.3818 47.8105 43.6074c7.2793 51.9268 -44.2461 85.3945 -82.4766 108.311c-37.9854 22.7695 -81.1289 47.9385 -95.7812 92.7129c-12.0869 36.9346 5.56641 75.7832 38.9512 93.1113c-16.4199 23.9678 -23.6738 52.166 -19.4463 82.4639
c5.84277 41.8945 30.0176 76.5537 56.1797 108.521c11.9053 14.5469 32.1035 -6.13867 20.5576 -20.5547c-27.4404 -34.2578 -56.5117 -77.3184 -47.0527 -123.616c8.6084 -42.1523 49.6582 -65.6006 82.2471 -88.1533c29.2754 -20.2588 62.9219 -45.249 65.1299 -84.0117
c1.66309 -29.125 -13.8428 -56.2432 -36.1953 -73.9023c9.62793 -8.32812 18.4785 -17.6465 26.0576 -28.5898zM160.439 39.6338c14.4766 10.918 26.0986 26.875 29.2461 44.958c3.37695 19.3984 -6.09766 35.1113 -19.6758 48.0967
c-28.7109 27.4629 -66.4639 43.2871 -94.8027 71.333c-0.433594 0.433594 -0.834961 0.882812 -1.26172 1.31641c-23.5312 -12.3711 -37.8613 -36.5684 -30.7793 -63.4092c6.2666 -23.751 25.5479 -42.3789 44.9248 -56.2822
c23.2598 -16.6904 49.0371 -29.835 72.3486 -46.0127z" />
    <glyph glyph-name="copyright" unicode="&#xa9;" horiz-adv-x="478" 
d="M445.067 326.745c35.915 -119.162 1.0332 -252.814 -69.9609 -352.157c-34.7646 -48.6484 -80.791 -90.167 -138.765 -108.308c-54.4219 -17.0283 -120.194 -11.2686 -158.775 34.752c-35.3252 42.1367 -43.5068 100.554 -43.6055 153.768
c-0.0888672 49.9482 7.94238 99.4766 21.5459 147.438c-17.6562 7.47363 -31.0693 24.4893 -35.4531 43.6172c-7.21289 31.4443 5.83691 64.9062 19.6641 92.6904c28.7588 57.7861 79.0703 105.823 138.561 131.005c54.1279 22.9131 114.545 23.3047 166.007 -6.78906
c50.6426 -29.6162 84.0977 -80.6572 100.782 -136.016zM365.287 10.7129c55.6445 88.0586 83.7236 198.866 56.5352 301.392c-13.0938 49.3779 -40.0811 96.666 -83.7979 124.887c-46.5361 30.0459 -101.945 30.5781 -152.082 8.87305
c-45.5205 -19.7051 -84.7578 -54.1318 -111.621 -95.6729c-13.416 -20.7432 -24.6943 -43.6367 -30.3809 -67.7734c-4.89062 -20.7461 -1.65723 -50.2793 17.6748 -59.8779c3.61328 11.3193 7.49707 22.5498 11.6709 33.6562
c6.49902 17.3086 34.4551 9.80859 27.9365 -7.70117c-4.51465 -12.126 -8.71387 -24.376 -12.5723 -36.7217c0.65332 -3.62891 -0.426758 -7.70703 -3.17578 -10.4307c-13.7344 -46.6475 -22.2188 -94.7256 -22.4258 -143.575
c-0.213867 -49.7188 5.88379 -109.492 44.041 -145.84c39.4443 -37.5742 103.649 -29.2334 148.615 -7.11719c46.5742 22.9062 82.2148 62.5898 109.582 105.902zM321.021 125.028c5.53711 12.6797 24.0117 1.70215 18.5703 -10.8535
c-17.5195 -40.4229 -53.4531 -86.6152 -98.8965 -96.5039c-98.3076 -21.3936 -84.9521 142.639 -70.5547 195.795c7.77051 28.6797 28.3359 99.6006 69.7559 91.292c17.666 -3.54297 25.876 -21.4795 30.7344 -37.0264c7.3623 -23.5566 9.95215 -48.458 8.13574 -73.0215
c-1.2041 -16.2891 -26.1787 -16.6299 -25.6367 0.000976562c0.729492 22.3076 -1.16602 44.6309 -8.0127 65.9863c-1.15918 3.6123 -3.00098 11.415 -6.05957 14.2344c-7.13672 6.5752 -13.2412 -1.13477 -17.415 -6.70996
c-5.15137 -6.88477 -8.87891 -15.0693 -12.3838 -22.875c-16.9746 -37.8066 -24.624 -79.7461 -23.1621 -121.09c1.1084 -31.3047 6.55273 -93.4297 52.8887 -81.9131c38.374 9.53906 67.0596 48.4072 82.0361 82.6846z" />
    <glyph glyph-name="softhyphen" unicode="&#xad;" 
 />
    </font>
</defs>
</svg>
